<?xml version="1.0" standalone="no"?>
<!DOCTYPE svg PUBLIC "-//W3C//DTD SVG 1.1//EN" "http://www.w3.org/Graphics/SVG/1.1/DTD/svg11.dtd" >
<svg xmlns="http://www.w3.org/2000/svg">
<metadata></metadata>
<defs>
<font id="roboto_condensedbold" horiz-adv-x="1223" >
<font-face units-per-em="2048" ascent="1536" descent="-512" />
<missing-glyph horiz-adv-x="472" />
<glyph horiz-adv-x="0" />
<glyph horiz-adv-x="0" />
<glyph unicode="&#xd;" horiz-adv-x="472" />
<glyph horiz-adv-x="0" />
<glyph unicode=" "  horiz-adv-x="472" />
<glyph unicode="&#x09;" horiz-adv-x="472" />
<glyph unicode="&#xa0;" horiz-adv-x="472" />
<glyph unicode="!" horiz-adv-x="533" d="M119 137q0 68 43 111.5t112 43.5q68 0 111 -43.5t43 -111.5q0 -67 -42.5 -110t-111.5 -43q-70 0 -112.5 43t-42.5 110zM124 1456h301l-33 -1008h-235z" />
<glyph unicode="&#x22;" horiz-adv-x="656" d="M62 985v551h203v-138l-39 -413h-164zM389 985v551h203v-138l-40 -413h-163z" />
<glyph unicode="#" horiz-adv-x="1080" d="M74 410v173h208l42 283h-187v174h212l61 416h174l-61 -416h135l61 416h174l-61 -416h179v-174h-204l-42 -283h182v-173h-207l-60 -410h-175l60 410h-134l-59 -410h-175l60 410h-183zM456 583h135l41 283h-134z" />
<glyph unicode="$" horiz-adv-x="1036" d="M92 458h283q0 -118 38 -181.5t114 -63.5q61 0 95.5 45.5t34.5 125.5q0 83 -34 131t-112 90q-153 68 -226.5 130.5t-109.5 143t-36 191.5q0 166 92 274.5t243 128.5v214h151v-218q150 -29 233.5 -152t83.5 -312h-283q0 120 -34.5 179t-89.5 59q-53 0 -83 -46t-30 -128 q0 -71 31 -118t118 -98q160 -76 230.5 -138.5t104.5 -141.5t34 -187q0 -169 -89.5 -275t-247.5 -127v-199h-150v199q-173 25 -267 147.5t-94 326.5z" />
<glyph unicode="%" horiz-adv-x="1308" d="M97 1105v71q0 133 73.5 217t198.5 84t199.5 -82.5t74.5 -222.5v-73q0 -135 -74 -217t-198 -82q-123 0 -198.5 82t-75.5 223zM281 1099q0 -60 25.5 -95.5t64.5 -35.5q40 0 63.5 37t23.5 97v74q0 58 -24 95.5t-65 37.5q-40 0 -64 -37.5t-24 -98.5v-74zM288 185l597 1138 l135 -76l-598 -1138zM671 283v74q0 135 75 217.5t198 82.5q124 0 199 -81.5t75 -223.5v-73q0 -134 -73 -216.5t-199 -82.5q-127 0 -201 83t-74 220zM856 279q0 -56 26.5 -94t63.5 -38q83 0 87 119v91q0 59 -24.5 95.5t-64.5 36.5q-88 0 -88 -153v-57z" />
<glyph unicode="&#x26;" horiz-adv-x="1186" d="M72 392q0 103 46.5 186.5t174.5 188.5q-55 87 -87 164.5t-32 160.5q0 171 95 277.5t254 106.5q143 0 235.5 -98.5t92.5 -241.5q0 -190 -159 -317l-80 -65l187 -261q35 103 35 222h239q0 -281 -110 -452l188 -263h-321l-54 76q-129 -96 -298 -96q-184 0 -295 113t-111 299 zM356 409q0 -84 39.5 -139.5t97.5 -55.5q79 0 149 52l-230 325l-6 -5q-50 -77 -50 -177zM426 1097q0 -71 68 -174l47 36q42 32 60 66.5t18 92.5q0 52 -28.5 87.5t-68.5 35.5q-44 0 -70 -39.5t-26 -104.5z" />
<glyph unicode="'" horiz-adv-x="330" d="M62 983v553h213v-148l-29 -405h-184z" />
<glyph unicode="(" horiz-adv-x="662" d="M120 551v41q0 224 52.5 430t157 368.5t223.5 224.5l53 -156q-113 -106 -179 -325.5t-69 -507.5v-60q0 -300 65.5 -527.5t182.5 -339.5l-53 -154q-118 62 -221.5 221t-156.5 362t-55 423z" />
<glyph unicode=")" horiz-adv-x="662" d="M56 -301q114 109 180 333.5t68 508.5v53q0 291 -65.5 520.5t-182.5 346.5l52 154q77 -39 157.5 -130t145.5 -225t105 -301.5t40 -390.5q0 -233 -59.5 -441t-165 -365t-223.5 -217z" />
<glyph unicode="*" horiz-adv-x="930" d="M27 1051l60 182l310 -126l-19 349h196l-20 -356l304 123l59 -183l-320 -90l210 -265l-160 -113l-182 291l-181 -282l-159 109l217 272z" />
<glyph unicode="+" horiz-adv-x="973" d="M64 553v263h288v390h268v-390h283v-263h-283v-407h-268v407h-288z" />
<glyph unicode="," horiz-adv-x="503" d="M36 -288l38 71q64 118 66 238v225h246l-1 -201q-1 -106 -54 -220t-144 -192z" />
<glyph unicode="-" horiz-adv-x="744" d="M123 506v236h489v-236h-489z" />
<glyph unicode="." horiz-adv-x="596" d="M126 144q0 68 45.5 112t118.5 44q71 0 118 -43.5t47 -112.5q0 -70 -47.5 -112.5t-117.5 -42.5q-71 0 -117.5 43t-46.5 112z" />
<glyph unicode="/" horiz-adv-x="678" d="M-1 -125l437 1581h207l-437 -1581h-207z" />
<glyph unicode="0" horiz-adv-x="1036" d="M95 581v275q0 301 109 460.5t313 159.5t313 -158t111 -451v-265q0 -302 -109.5 -462t-312.5 -160q-201 0 -310.5 155.5t-113.5 445.5zM377 563q0 -176 34.5 -262t107.5 -86q69 0 102.5 80.5t35.5 246.5v355q0 172 -34 258t-106 86q-135 0 -140 -315v-363z" />
<glyph unicode="1" horiz-adv-x="1036" d="M157 1005v236l531 217h30v-1458h-284v1112z" />
<glyph unicode="2" horiz-adv-x="1036" d="M71 997q0 134 55.5 245t156 172.5t227.5 61.5q195 0 302.5 -107.5t107.5 -305.5q0 -123 -59.5 -249.5t-215.5 -311.5l-187 -267h495v-235h-858v200l394 501q75 104 110.5 182.5t35.5 150.5q0 97 -33.5 152t-96.5 55q-69 0 -109.5 -64t-40.5 -180h-284z" />
<glyph unicode="3" horiz-adv-x="1036" d="M67 399h283q0 -78 41 -131t104 -53q73 0 115.5 54t42.5 144q0 215 -167 216h-139v228h137q78 0 114.5 54.5t36.5 145.5q0 87 -37.5 135.5t-100.5 48.5q-59 0 -96.5 -46t-37.5 -116h-283q0 114 52.5 204.5t147 141.5t209.5 51q201 0 315 -111t114 -304q0 -99 -51.5 -183.5 t-135.5 -129.5q103 -44 153.5 -132t50.5 -208q0 -194 -123.5 -311t-324.5 -117q-187 0 -303.5 115.5t-116.5 303.5z" />
<glyph unicode="4" horiz-adv-x="1036" d="M63 498l494 958h284v-906h124v-235h-124v-315h-283v315h-482zM338 550h220v487l-6 -11z" />
<glyph unicode="5" horiz-adv-x="1036" d="M95 406h280q7 -91 45 -141t98 -50q70 0 108 67.5t38 201.5q0 126 -45.5 190t-127.5 64q-80 0 -124 -55l-18 -25l-225 58l72 740h705v-242h-473l-26 -312q82 55 169 55q180 0 277.5 -128t97.5 -362q0 -219 -116 -353t-310 -134q-115 0 -213 54.5t-154.5 151.5t-57.5 220z " />
<glyph unicode="6" horiz-adv-x="1036" d="M100 567v105q0 241 75.5 422t218 278.5t332.5 98.5h44v-240h-16q-159 -1 -252.5 -95.5t-113.5 -264.5q91 104 228 104q158 0 252.5 -135t94.5 -360q0 -143 -54 -258t-151.5 -178.5t-220.5 -63.5q-198 0 -317.5 159t-119.5 428zM382 521q0 -154 41 -230t108 -76 q68 0 109 73.5t41 188.5q0 117 -42.5 190.5t-111.5 73.5q-54 0 -90.5 -34t-54.5 -84v-102z" />
<glyph unicode="7" horiz-adv-x="1036" d="M68 1221v235h881v-163l-460 -1293h-299l462 1221h-584z" />
<glyph unicode="8" horiz-adv-x="1036" d="M98 399q0 121 52 211t143 140q-80 49 -125 131t-45 188q0 191 107 299t287 108q182 0 288 -109t106 -298q0 -106 -45 -188t-124 -131q90 -51 142 -140.5t52 -210.5q0 -194 -112 -306.5t-305 -112.5t-307 112.5t-114 306.5zM381 421q0 -97 36.5 -151.5t101.5 -54.5 q64 0 98.5 54.5t34.5 151.5t-36 152t-99 55t-99.5 -55t-36.5 -152zM407 1054q0 -86 28 -138.5t84 -52.5t83 52.5t27 138.5q0 85 -27.5 136t-84.5 51q-54 0 -82 -49.5t-28 -137.5z" />
<glyph unicode="9" horiz-adv-x="1036" d="M90 961q0 144 54 263.5t150.5 185.5t215.5 66q123 0 219 -73t149 -209.5t53 -310.5v-103q0 -372 -163.5 -581.5t-463.5 -213.5h-29v244h19q166 1 249.5 86t100.5 248q-90 -92 -197 -92q-166 0 -261.5 133.5t-95.5 356.5zM372 964q0 -126 39 -198.5t108 -72.5 q82 0 129 112v130q0 143 -39 224.5t-101 81.5q-61 0 -98.5 -80.5t-37.5 -196.5z" />
<glyph unicode=":" horiz-adv-x="562" d="M128 144q0 68 45.5 112t118.5 44q71 0 118 -43.5t47 -112.5q0 -70 -47.5 -112.5t-117.5 -42.5q-71 0 -117.5 43t-46.5 112zM128 962q0 68 45.5 112t118.5 44q71 0 118 -43.5t47 -112.5q0 -70 -47.5 -112.5t-117.5 -42.5q-71 0 -117.5 43t-46.5 112z" />
<glyph unicode=";" horiz-adv-x="522" d="M60 -288l38 71q64 118 66 238v225h246l-1 -201q-1 -106 -54 -220t-144 -192zM112 962q0 68 45.5 112t118.5 44q71 0 118 -43.5t47 -112.5q0 -70 -47.5 -112.5t-117.5 -42.5q-71 0 -117.5 43t-46.5 112z" />
<glyph unicode="&#x3c;" horiz-adv-x="915" d="M61 500v238l728 365v-282l-453 -204l453 -199v-282z" />
<glyph unicode="=" horiz-adv-x="1030" d="M132 311v237h763v-237h-763zM132 744v238h763v-238h-763z" />
<glyph unicode="&#x3e;" horiz-adv-x="930" d="M121 135v280l462 206l-462 201v280l738 -364v-238z" />
<glyph unicode="?" horiz-adv-x="918" d="M50 1068q2 194 108.5 301t288.5 107q186 0 289 -103.5t103 -289.5q0 -154 -127 -302l-83 -94q-41 -49 -58 -101.5t-19 -137.5h-248q0 140 27.5 222.5t98.5 157.5q75 83 100 136t25 107q0 167 -108 167q-48 0 -80 -46t-34 -124h-283zM278 142q0 68 43.5 111t110.5 43 q69 0 112 -43.5t43 -110.5q0 -66 -42 -110t-113 -44q-70 0 -112 44t-42 110z" />
<glyph unicode="@" horiz-adv-x="1569" d="M84 463q9 276 105.5 495t261.5 338t375 119q209 0 362 -106.5t230 -307.5t68 -464q-5 -168 -54.5 -298.5t-132.5 -195t-192 -64.5q-143 0 -204 134q-83 -131 -209 -131t-194 124.5t-52 324.5q15 163 70.5 291t140.5 198t185 70q127 0 215 -68l53 -41l-44 -578 q-7 -81 10.5 -121.5t64.5 -40.5q72 0 120 111t52 278q13 347 -115 534.5t-378 187.5q-239 0 -387 -213t-161 -576q-14 -358 115.5 -549t381.5 -191q71 0 147 18.5t132 49.5l34 -155q-52 -40 -140 -64.5t-176 -24.5q-225 0 -382 106.5t-234 313t-68 496.5zM663 431 q-8 -133 18 -201t83 -68q32 0 62 41t49 112l36 491q-26 7 -48 7q-88 0 -136.5 -91t-63.5 -291z" />
<glyph unicode="A" d="M22 0l455 1456h269l458 -1456h-314l-78 298h-401l-78 -298h-311zM475 543h272l-136 519z" />
<glyph unicode="B" horiz-adv-x="1149" d="M117 0v1456h450q228 0 346.5 -101.5t118.5 -297.5q0 -111 -49 -191t-134 -117q98 -28 151 -112.5t53 -208.5q0 -212 -116.5 -320t-337.5 -108h-482zM411 244h188q79 0 120 49t41 139q0 196 -142 201h-207v-389zM411 847h153q173 0 173 179q0 99 -40 142t-130 43h-156 v-364z" />
<glyph unicode="C" horiz-adv-x="1168" d="M90 606v245q0 300 136 462.5t378 162.5q238 0 361.5 -133t140.5 -382h-295q-4 154 -47.5 212.5t-159.5 58.5q-118 0 -167 -82.5t-52 -271.5v-275q0 -217 48.5 -298t166.5 -81q116 0 160 56.5t50 204.5h294q-11 -249 -140 -377t-364 -128q-247 0 -378.5 162.5 t-131.5 463.5z" />
<glyph unicode="D" horiz-adv-x="1157" d="M117 0v1456h385q255 0 406.5 -162t154.5 -444v-236q0 -287 -151.5 -450.5t-417.5 -163.5h-377zM411 244h88q147 0 207 77.5t63 267.5v253q0 204 -57 284.5t-194 84.5h-107v-967z" />
<glyph unicode="E" horiz-adv-x="1005" d="M117 0v1456h834v-245h-540v-344h458v-237h-458v-386h542v-244h-836z" />
<glyph unicode="F" horiz-adv-x="974" d="M117 0v1456h806v-245h-512v-373h457v-244h-457v-594h-294z" />
<glyph unicode="G" horiz-adv-x="1198" d="M95 588v262q0 301 131.5 463.5t383.5 162.5q237 0 357.5 -117t139.5 -367h-286q-12 139 -58 189.5t-144 50.5q-119 0 -173 -87t-56 -277v-264q0 -199 59.5 -289.5t195.5 -90.5q87 0 141 35l26 18v267h-206v222h501v-601q-85 -92 -208.5 -138.5t-270.5 -46.5 q-251 0 -390 155.5t-143 452.5z" />
<glyph unicode="H" horiz-adv-x="1257" d="M117 0v1456h294v-589h434v589h293v-1456h-293v623h-434v-623h-294z" />
<glyph unicode="I" horiz-adv-x="554" d="M130 0v1456h294v-1456h-294z" />
<glyph unicode="J" horiz-adv-x="1004" d="M46 430h295q0 -206 127 -206q128 0 128 238v994h294v-1008q0 -212 -118 -340t-304 -128q-200 0 -311 119t-111 331z" />
<glyph unicode="K" horiz-adv-x="1133" d="M117 0v1456h294v-635l93 157l271 478h360l-417 -640l424 -816h-349l-266 562l-116 -146v-416h-294z" />
<glyph unicode="L" horiz-adv-x="980" d="M117 0v1456h294v-1212h516v-244h-810z" />
<glyph unicode="M" horiz-adv-x="1553" d="M117 0v1456h384l275 -1053l274 1053h384v-1456h-295v394l27 607l-291 -1001h-200l-291 1001l27 -607v-394h-294z" />
<glyph unicode="N" horiz-adv-x="1254" d="M117 0v1456h294l431 -956v956h293v-1456h-294l-430 955v-955h-294z" />
<glyph unicode="O" horiz-adv-x="1236" d="M92 590v249q0 300 139 468.5t386 168.5q243 0 383 -165.5t142 -464.5v-249q0 -293 -138.5 -455t-384.5 -162q-245 0 -385 160.5t-142 449.5zM386 597q0 -191 57 -281.5t176 -90.5q115 0 171 88.5t57 274.5v253q0 197 -56 293t-174 96q-117 0 -173 -92.5t-58 -281.5v-259z " />
<glyph unicode="P" horiz-adv-x="1165" d="M117 0v1456h496q216 0 344.5 -134t128.5 -348t-127 -338t-352 -124h-196v-512h-294zM411 757h202q84 0 130 55t46 160q0 109 -47 173.5t-126 65.5h-205v-454z" />
<glyph unicode="Q" horiz-adv-x="1236" d="M90 611v228q0 300 139 468.5t386 168.5q241 0 381 -162t145 -455v-244q0 -361 -195 -525l201 -180l-185 -170l-268 245l-77 -5q-247 0 -386.5 167.5t-140.5 463.5zM384 615q0 -200 57.5 -295t175.5 -95q115 0 171.5 94.5t57.5 288.5v233q0 199 -57 294t-174 95 t-173 -92.5t-58 -281.5v-241z" />
<glyph unicode="R" horiz-adv-x="1134" d="M118 0v1456h469q221 0 341.5 -114.5t120.5 -325.5q0 -290 -211 -406l255 -596v-14h-316l-219 532h-146v-532h-294zM412 777h167q88 0 132 58.5t44 156.5q0 219 -171 219h-172v-434z" />
<glyph unicode="S" horiz-adv-x="1106" d="M74 459h295q0 -126 49 -183t160 -57q154 0 154 163q0 89 -45.5 134.5t-165.5 94.5q-219 83 -315 194.5t-96 263.5q0 184 130.5 295.5t331.5 111.5q134 0 239 -56.5t161.5 -159.5t56.5 -234h-293q0 102 -43.5 155.5t-125.5 53.5q-77 0 -120 -45.5t-43 -122.5 q0 -60 48 -108.5t170 -100.5q213 -77 309.5 -189t96.5 -285q0 -190 -121 -297t-329 -107q-141 0 -257 58t-181.5 166t-65.5 255z" />
<glyph unicode="T" horiz-adv-x="1112" d="M51 1211v245h1009v-245h-360v-1211h-295v1211h-354z" />
<glyph unicode="U" horiz-adv-x="1170" d="M105 455v1001h296v-1002q0 -124 40 -177t145 -53t144 52.5t40 172.5v1007h294v-1008q-2 -227 -125 -347.5t-353 -120.5q-234 0 -357.5 122t-123.5 353z" />
<glyph unicode="V" horiz-adv-x="1184" d="M21 1456h326l244 -1056l245 1056h328l-420 -1456h-306z" />
<glyph unicode="W" horiz-adv-x="1534" d="M44 1456h293l137 -914l171 914h247l171 -915l138 915h291l-259 -1456h-295l-170 858l-168 -858h-296z" />
<glyph unicode="X" horiz-adv-x="1146" d="M33 0l350 734l-343 722h337l196 -500l196 500h337l-342 -722l350 -734h-341l-200 509l-199 -509h-341z" />
<glyph unicode="Y" horiz-adv-x="1111" d="M16 1456h320l220 -654l219 654h320l-390 -928v-528h-298v528z" />
<glyph unicode="Z" horiz-adv-x="1086" d="M72 1211v245h939v-173l-589 -1039h600v-244h-944v177l594 1034h-600z" />
<glyph unicode="[" horiz-adv-x="540" d="M110 -339v2034h389v-224h-105v-1587h105v-223h-389z" />
<glyph unicode="\" horiz-adv-x="781" d="M10 1456h289l510 -1581h-289z" />
<glyph unicode="]" horiz-adv-x="540" d="M34 -116h106v1587h-106v224h389v-2034h-389v223z" />
<glyph unicode="^" horiz-adv-x="800" d="M49 729l252 727h203l251 -727h-221l-132 455l-131 -455h-222z" />
<glyph unicode="_" horiz-adv-x="819" d="M21 0h775v-228h-775v228z" />
<glyph unicode="`" horiz-adv-x="678" d="M52 1536h317l198 -310h-239z" />
<glyph unicode="a" horiz-adv-x="964" d="M72 303q0 170 108.5 263t312.5 95h86v87q0 73 -25 103t-73 30q-106 0 -106 -124h-283q0 150 112.5 247.5t284.5 97.5q178 0 275.5 -92.5t97.5 -264.5v-509q2 -140 40 -219v-17h-285q-12 25 -24 84q-76 -104 -206 -104q-136 0 -225.5 90t-89.5 233zM356 322 q0 -120 94 -120q47 0 80 19t49 45v225h-68q-72 0 -113.5 -46t-41.5 -123z" />
<glyph unicode="b" horiz-adv-x="1014" d="M103 0v1536h283v-542q80 108 211 108q180 0 264 -130.5t86 -382.5v-83q0 -263 -84 -394.5t-264 -131.5q-141 0 -226 127l-9 -107h-261zM386 291q38 -76 132 -76q81 0 112.5 53t33.5 206v103q0 171 -33 229.5t-115 58.5q-89 0 -130 -81v-493z" />
<glyph unicode="c" horiz-adv-x="942" d="M69 493v86q0 255 108.5 389t320.5 134q179 0 282 -110.5t105 -313.5h-266q-1 91 -30 140t-96 49q-74 0 -106 -52.5t-34 -203.5v-110q0 -132 13 -184.5t43 -77t85 -24.5q123 0 125 160h266q-2 -177 -109 -286t-276 -109q-209 0 -319 130t-112 383z" />
<glyph unicode="d" horiz-adv-x="1015" d="M65 492v82q0 266 90 397t262 131q125 0 208 -108v542h285v-1536h-257l-13 110q-87 -130 -224 -130q-170 0 -259.5 130t-91.5 382zM349 503q0 -160 34 -223.5t115 -63.5q84 0 127 75v494q-42 80 -126 80q-78 0 -114 -63t-36 -224v-75z" />
<glyph unicode="e" horiz-adv-x="980" d="M78 482v86q0 256 112 395t321 139q204 0 307 -130.5t105 -386.5v-139h-563q6 -120 53 -175.5t145 -55.5q142 0 237 97l111 -171q-52 -72 -151 -116.5t-215 -44.5q-218 0 -340 130t-122 372zM362 644h283v26q-2 97 -32 147t-104 50t-107.5 -53t-39.5 -170z" />
<glyph unicode="f" horiz-adv-x="671" d="M37 869v213h131v97q1 179 94.5 278.5t258.5 99.5q50 0 128 -20l-2 -226q-29 9 -69 9q-126 0 -126 -150v-88h169v-213h-169v-869h-284v869h-131z" />
<glyph unicode="g" horiz-adv-x="1030" d="M69 494v80q0 266 96 397t269 131q147 0 227 -116l11 96h255v-1082q0 -207 -116 -316.5t-333 -109.5q-89 0 -187 35.5t-146 90.5l95 196q40 -42 104 -68.5t121 -26.5q95 0 136.5 45.5t42.5 146.5v93q-81 -106 -211 -106q-173 0 -267.5 134.5t-96.5 379.5zM352 503 q0 -150 39 -218.5t124 -68.5q87 0 129 63v517q-44 69 -127 69q-84 0 -124.5 -69t-40.5 -222v-71z" />
<glyph unicode="h" horiz-adv-x="1008" d="M96 0v1536h283v-549q92 115 226 115q148 0 225 -104t78 -310v-688h-284v685q0 95 -29.5 137.5t-95.5 42.5q-77 0 -120 -71v-794h-283z" />
<glyph unicode="i" horiz-adv-x="516" d="M103 1362q0 66 42 108t112 42t112 -42t42 -108q0 -65 -41.5 -108t-112.5 -43t-112.5 43t-41.5 108zM116 0v1082h284v-1082h-284z" />
<glyph unicode="j" horiz-adv-x="503" d="M-54 -189q47 -9 75 -9q94 0 96 132v1148h284v-1140q0 -185 -85 -282t-241 -97q-66 0 -128 17zM98 1362q0 66 42 108t112 42t112 -42t42 -108q0 -65 -41.5 -108t-112.5 -43t-112.5 43t-41.5 108z" />
<glyph unicode="k" horiz-adv-x="980" d="M103 0v1536h283v-830l35 52l196 324h337l-314 -446l344 -636h-324l-198 417l-76 -85v-332h-283z" />
<glyph unicode="l" horiz-adv-x="516" d="M116 0v1536h284v-1536h-284z" />
<glyph unicode="m" horiz-adv-x="1519" d="M104 0v1082h265l8 -100q95 120 251 120q162 0 229 -146q93 146 265 146q284 0 291 -393v-709h-283v691q0 94 -26 134t-88 40q-79 0 -118 -97l2 -34v-734h-283v689q0 93 -25 134.5t-89 41.5q-73 0 -116 -79v-786h-283z" />
<glyph unicode="n" horiz-adv-x="1008" d="M96 0v1082h266l8 -107q96 127 251 127q279 0 287 -391v-711h-284v690q0 92 -27.5 133.5t-96.5 41.5q-77 0 -120 -79v-786h-284z" />
<glyph unicode="o" horiz-adv-x="1019" d="M70 507v69q0 246 116 386t321 140q207 0 323 -140t116 -388v-69q0 -247 -115 -386t-322 -139q-208 0 -323.5 139.5t-115.5 387.5zM354 505q0 -290 155 -290q143 0 154 242l1 119q0 148 -41 219.5t-116 71.5q-72 0 -112.5 -71.5t-40.5 -219.5v-71z" />
<glyph unicode="p" horiz-adv-x="1014" d="M103 -416v1498h262l10 -99q81 119 221 119q173 0 260.5 -126t89.5 -386v-83q0 -255 -87.5 -391t-260.5 -136q-132 0 -212 107v-503h-283zM386 285q38 -70 129 -70q84 0 116.5 71t32.5 221v71q0 157 -34.5 222t-116.5 65q-87 0 -127 -73v-507z" />
<glyph unicode="q" horiz-adv-x="1018" d="M65 494v82q0 266 89 396t264 130q142 0 226 -128l18 108h247v-1498h-284v500q-79 -104 -208 -104q-171 0 -260.5 132.5t-91.5 381.5zM349 505q0 -157 34 -223.5t116 -66.5q86 0 126 67v515q-40 70 -125 70q-81 0 -115.5 -65t-35.5 -217v-80z" />
<glyph unicode="r" horiz-adv-x="679" d="M102 0v1082h267l8 -117q67 137 185 137q48 0 78 -13l-3 -280l-94 8q-116 0 -157 -102v-715h-284z" />
<glyph unicode="s" horiz-adv-x="930" d="M58 335h269q2 -74 34.5 -111t106.5 -37q114 0 114 103q0 36 -34.5 66.5t-153.5 82.5q-175 71 -240.5 147t-65.5 189q0 142 102.5 234.5t271.5 92.5q178 0 285 -92t107 -247h-283q0 132 -110 132q-45 0 -74 -28t-29 -78q0 -36 32 -63.5t151 -78.5q173 -64 244.5 -142.5 t71.5 -203.5q0 -145 -109 -233t-286 -88q-119 0 -210 46.5t-142.5 129.5t-51.5 179z" />
<glyph unicode="t" horiz-adv-x="629" d="M24 869v213h125v266h283v-266h145v-213h-145v-537q0 -64 17.5 -88t67.5 -24q41 0 67 7l-2 -220q-72 -27 -156 -27q-274 0 -277 314v575h-125z" />
<glyph unicode="u" horiz-adv-x="1008" d="M96 381v701h283v-708q2 -158 105 -158q97 0 140 84v782h285v-1082h-266l-8 99q-88 -119 -236 -119q-149 0 -226 102.5t-77 298.5z" />
<glyph unicode="v" horiz-adv-x="920" d="M25 1082h296l137 -682l137 682h295l-297 -1082h-270z" />
<glyph unicode="w" horiz-adv-x="1296" d="M34 1082h272l96 -608l144 608h201l144 -607l97 607h271l-224 -1082h-235l-153 626l-153 -626h-236z" />
<glyph unicode="x" horiz-adv-x="927" d="M32 0l256 553l-245 529h301l121 -321l126 321h300l-247 -529l256 -553h-301l-133 339l-132 -339h-302z" />
<glyph unicode="y" horiz-adv-x="914" d="M16 1082h304l130 -611l144 611h302l-356 -1244q-80 -275 -301 -275q-51 0 -116 19v221l33 -1q66 0 99.5 25.5t50.5 88.5l22 73z" />
<glyph unicode="z" horiz-adv-x="927" d="M80 0v177l418 669h-408v236h748v-171l-422 -676h428v-235h-764z" />
<glyph unicode="{" horiz-adv-x="610" d="M56 514v208q137 0 137 212v218q8 347 309 445l54 -162q-100 -48 -109 -249l-1 -250q0 -225 -159 -317q159 -93 159 -321t2 -261q11 -188 107 -234l-53 -163q-302 98 -309 449v216q0 209 -137 209z" />
<glyph unicode="|" horiz-adv-x="519" d="M173 -270v1726h176v-1726h-176z" />
<glyph unicode="}" horiz-adv-x="610" d="M53 1435l54 162q154 -50 230.5 -162t78.5 -294v-208q0 -211 138 -211v-208q-138 0 -138 -211v-217q-8 -348 -309 -446l-53 163q56 26 83 96.5t27 205.5v196q0 229 163 317q-163 89 -163 318t-1 250q-9 202 -110 249z" />
<glyph unicode="~" horiz-adv-x="1141" d="M99 415q0 185 80 299t209 114q66 0 121.5 -32.5t111.5 -98.5q58 -84 115 -84q41 0 70 52t29 129h206q0 -185 -81 -302t-209 -117q-60 0 -112 27.5t-120 104.5q-61 83 -116 83q-42 0 -68.5 -51.5t-26.5 -126.5z" />
<glyph unicode="&#xa2;" horiz-adv-x="1042" d="M98 532v22q0 218 87 361t246 177v226h191v-227q135 -30 212 -138.5t79 -274.5h-266q0 87 -33 138t-93 51q-112 0 -133 -171q-7 -56 -7 -170q0 -177 34.5 -244t106.5 -67q60 0 92 43t33 117h266q-2 -143 -81.5 -248t-209.5 -136v-236h-191v235q-159 34 -246 176.5 t-87 365.5z" />
<glyph unicode="&#xa3;" horiz-adv-x="1074" d="M104 575v237h121l-6 227q0 202 108 319t287 117q184 0 289.5 -112t105.5 -306h-279q0 84 -30.5 129t-85.5 45q-42 0 -71.5 -48t-29.5 -144l8 -227h250v-237h-242l5 -137q-2 -123 -56 -194h534v-244h-906v244h74q49 15 54 125l1 52l-4 154h-127z" />
<glyph unicode="&#xa5;" horiz-adv-x="1101" d="M31 1456h322l198 -550l197 550h322l-309 -714h177v-176h-244v-114h244v-175h-244v-277h-294v277h-264v175h264v114h-264v176h204z" />
<glyph unicode="&#xa8;" horiz-adv-x="959" d="M93 1365q0 55 40.5 91.5t98.5 36.5t98.5 -36.5t40.5 -91.5q0 -54 -40.5 -90.5t-98.5 -36.5t-98.5 36.5t-40.5 90.5zM582 1365q0 54 40.5 90.5t98.5 36.5t98.5 -36.5t40.5 -90.5q0 -52 -38.5 -89.5t-100.5 -37.5t-100.5 37.5t-38.5 89.5z" />
<glyph unicode="&#xa9;" horiz-adv-x="1606" d="M86 729q0 202 93.5 375t259 272.5t357.5 99.5t357.5 -99.5t259 -272.5t93.5 -375q0 -204 -95 -377.5t-259.5 -272.5t-355.5 -99q-193 0 -357.5 100t-258.5 273t-94 376zM208 729q0 -170 77.5 -314t214 -227.5t296.5 -83.5t297.5 85t213.5 229t76 311q0 166 -75 308.5 t-212 228t-300 85.5q-159 0 -295.5 -82t-214.5 -226t-78 -314zM433 675v113q0 174 95.5 280.5t253.5 106.5q163 0 249.5 -82.5t86.5 -231.5h-156q0 96 -46 137.5t-134 41.5q-92 0 -142.5 -67.5t-51.5 -180.5v-123q0 -117 51 -184.5t143 -67.5q89 0 134 40.5t45 138.5h156 q0 -152 -87.5 -233t-247.5 -81t-254.5 106.5t-94.5 286.5z" />
<glyph unicode="&#xab;" horiz-adv-x="920" d="M73 514v19l233 390h175l-192 -400l192 -399h-175zM414 514v19l233 390h175l-192 -400l192 -399h-175z" />
<glyph unicode="&#xad;" horiz-adv-x="744" d="M123 506v236h489v-236h-489z" />
<glyph unicode="&#xae;" horiz-adv-x="1606" d="M86 729q0 202 93.5 375t259 272.5t357.5 99.5t357.5 -99.5t259 -272.5t93.5 -375q0 -204 -95 -377.5t-259.5 -272.5t-355.5 -99q-193 0 -357.5 100t-258.5 273t-94 376zM208 729q0 -170 77.5 -314t214 -227.5t296.5 -83.5t297.5 85t213.5 229t76 311q0 166 -75 308.5 t-212 228t-300 85.5q-159 0 -295.5 -82t-214.5 -226t-78 -314zM501 316v850h281q151 0 238 -68.5t87 -194.5q0 -112 -112 -174q60 -31 84.5 -86t24.5 -137.5t3.5 -116.5t13.5 -57v-16h-155q-13 34 -13 194q0 76 -33 109.5t-110 33.5h-158v-337h-151zM652 787h135 q73 0 121.5 31.5t48.5 84.5q0 70 -35.5 99.5t-128.5 30.5h-141v-246z" />
<glyph unicode="&#xb4;" horiz-adv-x="680" d="M101 1226l196 310h318l-278 -310h-236z" />
<glyph unicode="&#xb8;" horiz-adv-x="511" d="M96 -136l27 143h211l-9 -58q58 -13 89.5 -57.5t31.5 -115.5q0 -110 -79 -174t-226 -64l-6 167q73 0 73 82q0 40 -25.5 56t-86.5 21z" />
<glyph unicode="&#xbb;" horiz-adv-x="921" d="M84 124l193 399l-193 400h177l233 -390v-19l-233 -390h-177zM432 124l193 399l-193 400h177l233 -390v-19l-233 -390h-177z" />
<glyph unicode="&#xc1;" d="M22 0l455 1456h269l458 -1456h-314l-78 298h-401l-78 -298h-311zM475 543h272l-136 519zM475 1536l196 310h318l-278 -310h-236z" />
<glyph unicode="&#xc4;" d="M22 0l455 1456h269l458 -1456h-314l-78 298h-401l-78 -298h-311zM229 1675q0 55 40.5 91.5t98.5 36.5t98.5 -36.5t40.5 -91.5q0 -54 -40.5 -90.5t-98.5 -36.5t-98.5 36.5t-40.5 90.5zM475 543h272l-136 519zM718 1675q0 54 40.5 90.5t98.5 36.5t98.5 -36.5t40.5 -90.5 q0 -52 -38.5 -89.5t-100.5 -37.5t-100.5 37.5t-38.5 89.5z" />
<glyph unicode="&#xc9;" horiz-adv-x="1005" d="M117 0v1456h834v-245h-540v-344h458v-237h-458v-386h542v-244h-836zM417 1539l196 310h318l-278 -310h-236z" />
<glyph unicode="&#xcd;" horiz-adv-x="554" d="M130 0v1456h294v-1456h-294zM136 1539l196 310h318l-278 -310h-236z" />
<glyph unicode="&#xd3;" horiz-adv-x="1236" d="M92 590v249q0 300 139 468.5t386 168.5q243 0 383 -165.5t142 -464.5v-249q0 -293 -138.5 -455t-384.5 -162q-245 0 -385 160.5t-142 449.5zM386 597q0 -191 57 -281.5t176 -90.5q115 0 171 88.5t57 274.5v253q0 197 -56 293t-174 96q-117 0 -173 -92.5t-58 -281.5v-259z M479 1536l196 310h318l-278 -310h-236z" />
<glyph unicode="&#xd6;" horiz-adv-x="1236" d="M92 590v249q0 300 139 468.5t386 168.5q243 0 383 -165.5t142 -464.5v-249q0 -293 -138.5 -455t-384.5 -162q-245 0 -385 160.5t-142 449.5zM233 1675q0 55 40.5 91.5t98.5 36.5t98.5 -36.5t40.5 -91.5q0 -54 -40.5 -90.5t-98.5 -36.5t-98.5 36.5t-40.5 90.5zM386 597 q0 -191 57 -281.5t176 -90.5q115 0 171 88.5t57 274.5v253q0 197 -56 293t-174 96q-117 0 -173 -92.5t-58 -281.5v-259zM722 1675q0 54 40.5 90.5t98.5 36.5t98.5 -36.5t40.5 -90.5q0 -52 -38.5 -89.5t-100.5 -37.5t-100.5 37.5t-38.5 89.5z" />
<glyph unicode="&#xda;" horiz-adv-x="1170" d="M105 455v1001h296v-1002q0 -124 40 -177t145 -53t144 52.5t40 172.5v1007h294v-1008q-2 -227 -125 -347.5t-353 -120.5q-234 0 -357.5 122t-123.5 353zM439 1536l196 310h318l-278 -310h-236z" />
<glyph unicode="&#xdc;" horiz-adv-x="1170" d="M105 455v1001h296v-1002q0 -124 40 -177t145 -53t144 52.5t40 172.5v1007h294v-1008q-2 -227 -125 -347.5t-353 -120.5q-234 0 -357.5 122t-123.5 353zM193 1675q0 55 40.5 91.5t98.5 36.5t98.5 -36.5t40.5 -91.5q0 -54 -40.5 -90.5t-98.5 -36.5t-98.5 36.5t-40.5 90.5z M682 1675q0 54 40.5 90.5t98.5 36.5t98.5 -36.5t40.5 -90.5q0 -52 -38.5 -89.5t-100.5 -37.5t-100.5 37.5t-38.5 89.5z" />
<glyph unicode="&#xdd;" horiz-adv-x="1111" d="M16 1456h320l220 -654l219 654h320l-390 -928v-528h-298v528zM419 1536l196 310h318l-278 -310h-236z" />
<glyph unicode="&#xdf;" horiz-adv-x="1145" d="M129 0v1101q0 218 111 338t312 120q172 0 272.5 -100t100.5 -270q0 -107 -44 -195t-44 -163q0 -36 22.5 -72.5t89.5 -112.5t97.5 -146t30.5 -145q0 -178 -96 -276.5t-292 -98.5q-67 0 -131 16t-98 40l51 230q75 -51 173 -51q111 0 111 135q0 45 -25 86t-90 107.5t-95 132 t-30 142.5q0 96 45.5 187t45.5 169q0 69 -31.5 110t-85.5 41q-114 0 -118 -209v-1116h-282z" />
<glyph unicode="&#xe1;" horiz-adv-x="964" d="M72 303q0 170 108.5 263t312.5 95h86v87q0 73 -25 103t-73 30q-106 0 -106 -124h-283q0 150 112.5 247.5t284.5 97.5q178 0 275.5 -92.5t97.5 -264.5v-509q2 -140 40 -219v-17h-285q-12 25 -24 84q-76 -104 -206 -104q-136 0 -225.5 90t-89.5 233zM339 1226l196 310h318 l-278 -310h-236zM356 322q0 -120 94 -120q47 0 80 19t49 45v225h-68q-72 0 -113.5 -46t-41.5 -123z" />
<glyph unicode="&#xe4;" horiz-adv-x="964" d="M72 303q0 170 108.5 263t312.5 95h86v87q0 73 -25 103t-73 30q-106 0 -106 -124h-283q0 150 112.5 247.5t284.5 97.5q178 0 275.5 -92.5t97.5 -264.5v-509q2 -140 40 -219v-17h-285q-12 25 -24 84q-76 -104 -206 -104q-136 0 -225.5 90t-89.5 233zM93 1365 q0 55 40.5 91.5t98.5 36.5t98.5 -36.5t40.5 -91.5q0 -54 -40.5 -90.5t-98.5 -36.5t-98.5 36.5t-40.5 90.5zM356 322q0 -120 94 -120q47 0 80 19t49 45v225h-68q-72 0 -113.5 -46t-41.5 -123zM582 1365q0 54 40.5 90.5t98.5 36.5t98.5 -36.5t40.5 -90.5q0 -52 -38.5 -89.5 t-100.5 -37.5t-100.5 37.5t-38.5 89.5z" />
<glyph unicode="&#xe9;" horiz-adv-x="980" d="M78 482v86q0 256 112 395t321 139q204 0 307 -130.5t105 -386.5v-139h-563q6 -120 53 -175.5t145 -55.5q142 0 237 97l111 -171q-52 -72 -151 -116.5t-215 -44.5q-218 0 -340 130t-122 372zM334 1226l196 310h318l-278 -310h-236zM362 644h283v26q-2 97 -32 147t-104 50 t-107.5 -53t-39.5 -170z" />
<glyph unicode="&#xed;" horiz-adv-x="537" d="M124 0v1082h283v-1082h-283zM129 1211l196 310h318l-278 -310h-236z" />
<glyph unicode="&#xf3;" horiz-adv-x="1019" d="M70 507v69q0 246 116 386t321 140q207 0 323 -140t116 -388v-69q0 -247 -115 -386t-322 -139q-208 0 -323.5 139.5t-115.5 387.5zM354 505q0 -290 155 -290q143 0 154 242l1 119q0 148 -41 219.5t-116 71.5q-72 0 -112.5 -71.5t-40.5 -219.5v-71zM366 1226l196 310h318 l-278 -310h-236z" />
<glyph unicode="&#xf6;" horiz-adv-x="1019" d="M70 507v69q0 246 116 386t321 140q207 0 323 -140t116 -388v-69q0 -247 -115 -386t-322 -139q-208 0 -323.5 139.5t-115.5 387.5zM120 1365q0 55 40.5 91.5t98.5 36.5t98.5 -36.5t40.5 -91.5q0 -54 -40.5 -90.5t-98.5 -36.5t-98.5 36.5t-40.5 90.5zM354 505 q0 -290 155 -290q143 0 154 242l1 119q0 148 -41 219.5t-116 71.5q-72 0 -112.5 -71.5t-40.5 -219.5v-71zM609 1365q0 54 40.5 90.5t98.5 36.5t98.5 -36.5t40.5 -90.5q0 -52 -38.5 -89.5t-100.5 -37.5t-100.5 37.5t-38.5 89.5z" />
<glyph unicode="&#xfa;" horiz-adv-x="1008" d="M96 381v701h283v-708q2 -158 105 -158q97 0 140 84v782h285v-1082h-266l-8 99q-88 -119 -236 -119q-149 0 -226 102.5t-77 298.5zM360 1226l196 310h318l-278 -310h-236z" />
<glyph unicode="&#xfc;" horiz-adv-x="1008" d="M96 381v701h283v-708q2 -158 105 -158q97 0 140 84v782h285v-1082h-266l-8 99q-88 -119 -236 -119q-149 0 -226 102.5t-77 298.5zM114 1365q0 55 40.5 91.5t98.5 36.5t98.5 -36.5t40.5 -91.5q0 -54 -40.5 -90.5t-98.5 -36.5t-98.5 36.5t-40.5 90.5zM603 1365 q0 54 40.5 90.5t98.5 36.5t98.5 -36.5t40.5 -90.5q0 -52 -38.5 -89.5t-100.5 -37.5t-100.5 37.5t-38.5 89.5z" />
<glyph unicode="&#xfd;" horiz-adv-x="914" d="M16 1082h304l130 -611l144 611h302l-356 -1244q-80 -275 -301 -275q-51 0 -116 19v221l33 -1q66 0 99.5 25.5t50.5 88.5l22 73zM319 1226l196 310h318l-278 -310h-236z" />
<glyph unicode="&#x10c;" horiz-adv-x="1168" d="M90 606v245q0 300 136 462.5t378 162.5q238 0 361.5 -133t140.5 -382h-295q-4 154 -47.5 212.5t-159.5 58.5q-118 0 -167 -82.5t-52 -271.5v-275q0 -217 48.5 -298t166.5 -81q116 0 160 56.5t50 204.5h294q-11 -249 -140 -377t-364 -128q-247 0 -378.5 162.5 t-131.5 463.5zM244 1846v9h240l115 -142l116 142h241v-11l-268 -281h-176z" />
<glyph unicode="&#x10d;" horiz-adv-x="942" d="M69 493v86q0 255 108.5 389t320.5 134q179 0 282 -110.5t105 -313.5h-266q-1 91 -30 140t-96 49q-74 0 -106 -52.5t-34 -203.5v-110q0 -132 13 -184.5t43 -77t85 -24.5q123 0 125 160h266q-2 -177 -109 -286t-276 -109q-209 0 -319 130t-112 383zM110 1528v9h240 l115 -142l116 142h241v-11l-268 -281h-176z" />
<glyph unicode="&#x10e;" horiz-adv-x="1157" d="M94 1841v9h240l115 -142l116 142h241v-11l-268 -281h-176zM117 0v1456h385q255 0 406.5 -162t154.5 -444v-236q0 -287 -151.5 -450.5t-417.5 -163.5h-377zM411 244h88q147 0 207 77.5t63 267.5v253q0 204 -57 284.5t-194 84.5h-107v-967z" />
<glyph unicode="&#x10f;" horiz-adv-x="1165" d="M65 492v82q0 266 90 397t262 131q125 0 208 -108v542h285v-1536h-257l-13 110q-87 -130 -224 -130q-170 0 -259.5 130t-91.5 382zM349 503q0 -160 34 -223.5t115 -63.5q84 0 127 75v494q-42 80 -126 80q-78 0 -114 -63t-36 -224v-75zM969 1191q62 119 65 240v106h204v-76 q-1 -91 -37.5 -188.5t-93.5 -160.5z" />
<glyph unicode="&#x11a;" horiz-adv-x="1005" d="M117 0v1456h834v-245h-540v-344h458v-237h-458v-386h542v-244h-836zM200 1841v9h240l115 -142l116 142h241v-11l-268 -281h-176z" />
<glyph unicode="&#x11b;" horiz-adv-x="980" d="M78 482v86q0 256 112 395t321 139q204 0 307 -130.5t105 -386.5v-139h-563q6 -120 53 -175.5t145 -55.5q142 0 237 97l111 -171q-52 -72 -151 -116.5t-215 -44.5q-218 0 -340 130t-122 372zM117 1528v9h240l115 -142l116 142h241v-11l-268 -281h-176zM362 644h283v26 q-2 97 -32 147t-104 50t-107.5 -53t-39.5 -170z" />
<glyph unicode="&#x147;" horiz-adv-x="1254" d="M117 0v1456h294l431 -956v956h293v-1456h-294l-430 955v-955h-294zM274 1838v9h240l115 -142l116 142h241v-11l-268 -281h-176z" />
<glyph unicode="&#x148;" horiz-adv-x="1008" d="M96 0v1082h266l8 -107q96 127 251 127q279 0 287 -391v-711h-284v690q0 92 -27.5 133.5t-96.5 41.5q-77 0 -120 -79v-786h-284zM147 1528v9h240l115 -142l116 142h241v-11l-268 -281h-176z" />
<glyph unicode="&#x158;" horiz-adv-x="1134" d="M118 0v1456h469q221 0 341.5 -114.5t120.5 -325.5q0 -290 -211 -406l255 -596v-14h-316l-219 532h-146v-532h-294zM165 1838v9h240l115 -142l116 142h241v-11l-268 -281h-176zM412 777h167q88 0 132 58.5t44 156.5q0 219 -171 219h-172v-434z" />
<glyph unicode="&#x159;" horiz-adv-x="679" d="M9 1528v9h240l115 -142l116 142h241v-11l-268 -281h-176zM102 0v1082h267l8 -117q67 137 185 137q48 0 78 -13l-3 -280l-94 8q-116 0 -157 -102v-715h-284z" />
<glyph unicode="&#x160;" horiz-adv-x="1106" d="M74 459h295q0 -126 49 -183t160 -57q154 0 154 163q0 89 -45.5 134.5t-165.5 94.5q-219 83 -315 194.5t-96 263.5q0 184 130.5 295.5t331.5 111.5q134 0 239 -56.5t161.5 -159.5t56.5 -234h-293q0 102 -43.5 155.5t-125.5 53.5q-77 0 -120 -45.5t-43 -122.5 q0 -60 48 -108.5t170 -100.5q213 -77 309.5 -189t96.5 -285q0 -190 -121 -297t-329 -107q-141 0 -257 58t-181.5 166t-65.5 255zM211 1838v9h240l115 -142l116 142h241v-11l-268 -281h-176z" />
<glyph unicode="&#x161;" horiz-adv-x="930" d="M58 335h269q2 -74 34.5 -111t106.5 -37q114 0 114 103q0 36 -34.5 66.5t-153.5 82.5q-175 71 -240.5 147t-65.5 189q0 142 102.5 234.5t271.5 92.5q178 0 285 -92t107 -247h-283q0 132 -110 132q-45 0 -74 -28t-29 -78q0 -36 32 -63.5t151 -78.5q173 -64 244.5 -142.5 t71.5 -203.5q0 -145 -109 -233t-286 -88q-119 0 -210 46.5t-142.5 129.5t-51.5 179zM110 1528v9h240l115 -142l116 142h241v-11l-268 -281h-176z" />
<glyph unicode="&#x164;" horiz-adv-x="1112" d="M51 1211v245h1009v-245h-360v-1211h-295v1211h-354zM195 1838v9h240l115 -142l116 142h241v-11l-268 -281h-176z" />
<glyph unicode="&#x165;" horiz-adv-x="669" d="M24 869v213h125v266h283v-266h145v-213h-145v-537q0 -64 17.5 -88t67.5 -24q41 0 67 7l-2 -220q-72 -27 -156 -27q-274 0 -277 314v575h-125zM511 1322q62 119 65 240v106h204v-76q-1 -91 -37.5 -188.5t-93.5 -160.5z" />
<glyph unicode="&#x16e;" horiz-adv-x="1170" d="M105 455v1001h296v-1002q0 -124 40 -177t145 -53t144 52.5t40 172.5v1007h294v-1008q-2 -227 -125 -347.5t-353 -120.5q-234 0 -357.5 122t-123.5 353zM356 1730q0 86 65 145.5t158 59.5q92 0 157.5 -58.5t65.5 -146.5q0 -85 -64 -143t-159 -58q-97 0 -160 59t-63 142z M472 1730q0 -47 30.5 -77t76.5 -30q50 0 79 31t29 76q0 46 -29.5 77.5t-78.5 31.5q-47 0 -77 -31t-30 -78z" />
<glyph unicode="&#x16f;" horiz-adv-x="1008" d="M96 381v701h283v-708q2 -158 105 -158q97 0 140 84v782h285v-1082h-266l-8 99q-88 -119 -236 -119q-149 0 -226 102.5t-77 298.5zM277 1420q0 86 65 145.5t158 59.5q92 0 157.5 -58.5t65.5 -146.5q0 -85 -64 -143t-159 -58q-97 0 -160 59t-63 142zM393 1420 q0 -47 30.5 -77t76.5 -30q50 0 79 31t29 76q0 46 -29.5 77.5t-78.5 31.5q-47 0 -77 -31t-30 -78z" />
<glyph unicode="&#x17d;" horiz-adv-x="1086" d="M72 1211v245h939v-173l-589 -1039h600v-244h-944v177l594 1034h-600zM196 1838v9h240l115 -142l116 142h241v-11l-268 -281h-176z" />
<glyph unicode="&#x17e;" horiz-adv-x="927" d="M80 0v177l418 669h-408v236h748v-171l-422 -676h428v-235h-764zM104 1528v9h240l115 -142l116 142h241v-11l-268 -281h-176z" />
<glyph unicode="&#x2c6;" horiz-adv-x="929" d="M118 1244v16l260 276h162l265 -280v-12h-221l-125 144l-125 -144h-216z" />
<glyph unicode="&#x2da;" horiz-adv-x="682" d="M119 1323q0 86 65 145.5t158 59.5q92 0 157.5 -58.5t65.5 -146.5q0 -85 -64 -143t-159 -58q-97 0 -160 59t-63 142zM235 1323q0 -47 30.5 -77t76.5 -30q50 0 79 31t29 76q0 46 -29.5 77.5t-78.5 31.5q-47 0 -77 -31t-30 -78z" />
<glyph unicode="&#x2dc;" horiz-adv-x="895" d="M123 1258q0 111 57 189.5t140 78.5q22 0 42.5 -6.5t71 -35t72.5 -36t44 -7.5q26 0 45.5 24.5t19.5 70.5l159 -12q0 -111 -56.5 -188.5t-142.5 -77.5q-32 0 -56.5 9t-69 37t-63 34t-40.5 6q-27 0 -45 -24.5t-18 -70.5z" />
<glyph unicode="&#x1e00;" d="M22 0l455 1456h269l458 -1456h-314l-78 298h-401l-78 -298h-311zM447 -224q0 71 47.5 122t118.5 51t117.5 -50.5t46.5 -122.5q0 -73 -47 -121t-117 -48q-71 0 -118.5 48.5t-47.5 120.5zM475 543h272l-136 519zM550 -224q0 -32 18.5 -52.5t44.5 -20.5t43 20.5t17 52.5 q0 34 -17 55.5t-43 21.5t-44.5 -21.5t-18.5 -55.5z" />
<glyph unicode="&#x1e01;" horiz-adv-x="964" d="M72 303q0 170 108.5 263t312.5 95h86v87q0 73 -25 103t-73 30q-106 0 -106 -124h-283q0 150 112.5 247.5t284.5 97.5q178 0 275.5 -92.5t97.5 -264.5v-509q2 -140 40 -219v-17h-285q-12 25 -24 84q-76 -104 -206 -104q-136 0 -225.5 90t-89.5 233zM245 -214 q0 71 47.5 122t118.5 51t117.5 -50.5t46.5 -122.5q0 -73 -47 -121t-117 -48q-71 0 -118.5 48.5t-47.5 120.5zM348 -214q0 -32 18.5 -52.5t44.5 -20.5t43 20.5t17 52.5q0 34 -17 55.5t-43 21.5t-44.5 -21.5t-18.5 -55.5zM356 322q0 -120 94 -120q47 0 80 19t49 45v225h-68 q-72 0 -113.5 -46t-41.5 -123z" />
<glyph unicode="&#x1e3e;" horiz-adv-x="1553" d="M117 0v1456h384l275 -1053l274 1053h384v-1456h-295v394l27 607l-291 -1001h-200l-291 1001l27 -607v-394h-294zM631 1536l196 310h318l-278 -310h-236z" />
<glyph unicode="&#x1e3f;" horiz-adv-x="1519" d="M104 0v1082h265l8 -100q95 120 251 120q162 0 229 -146q93 146 265 146q284 0 291 -393v-709h-283v691q0 94 -26 134t-88 40q-79 0 -118 -97l2 -34v-734h-283v689q0 93 -25 134.5t-89 41.5q-73 0 -116 -79v-786h-283zM639 1226l196 310h318l-278 -310h-236z" />
<glyph unicode="&#x1e80;" horiz-adv-x="1534" d="M44 1456h293l137 -914l171 914h247l171 -915l138 915h291l-259 -1456h-295l-170 858l-168 -858h-296zM404 1846h317l198 -310h-239z" />
<glyph unicode="&#x1e81;" horiz-adv-x="1296" d="M34 1082h272l96 -608l144 608h201l144 -607l97 607h271l-224 -1082h-235l-153 626l-153 -626h-236zM275 1536h317l198 -310h-239z" />
<glyph unicode="&#x1e82;" horiz-adv-x="1534" d="M44 1456h293l137 -914l171 914h247l171 -915l138 915h291l-259 -1456h-295l-170 858l-168 -858h-296zM636 1536l196 310h318l-278 -310h-236z" />
<glyph unicode="&#x1e83;" horiz-adv-x="1296" d="M34 1082h272l96 -608l144 608h201l144 -607l97 607h271l-224 -1082h-235l-153 626l-153 -626h-236zM507 1226l196 310h318l-278 -310h-236z" />
<glyph unicode="&#x1e84;" horiz-adv-x="1534" d="M44 1456h293l137 -914l171 914h247l171 -915l138 915h291l-259 -1456h-295l-170 858l-168 -858h-296zM390 1675q0 55 40.5 91.5t98.5 36.5t98.5 -36.5t40.5 -91.5q0 -54 -40.5 -90.5t-98.5 -36.5t-98.5 36.5t-40.5 90.5zM879 1675q0 54 40.5 90.5t98.5 36.5t98.5 -36.5 t40.5 -90.5q0 -52 -38.5 -89.5t-100.5 -37.5t-100.5 37.5t-38.5 89.5z" />
<glyph unicode="&#x1e85;" horiz-adv-x="1296" d="M34 1082h272l96 -608l144 608h201l144 -607l97 607h271l-224 -1082h-235l-153 626l-153 -626h-236zM261 1365q0 55 40.5 91.5t98.5 36.5t98.5 -36.5t40.5 -91.5q0 -54 -40.5 -90.5t-98.5 -36.5t-98.5 36.5t-40.5 90.5zM750 1365q0 54 40.5 90.5t98.5 36.5t98.5 -36.5 t40.5 -90.5q0 -52 -38.5 -89.5t-100.5 -37.5t-100.5 37.5t-38.5 89.5z" />
<glyph unicode="&#x1ea0;" d="M22 0l455 1456h269l458 -1456h-314l-78 298h-401l-78 -298h-311zM452 -228q0 60 45.5 99.5t117.5 39.5q73 0 118.5 -39.5t45.5 -99.5t-45.5 -99.5t-118.5 -39.5q-72 0 -117.5 39.5t-45.5 99.5zM475 543h272l-136 519z" />
<glyph unicode="&#x1ea1;" horiz-adv-x="964" d="M72 303q0 170 108.5 263t312.5 95h86v87q0 73 -25 103t-73 30q-106 0 -106 -124h-283q0 150 112.5 247.5t284.5 97.5q178 0 275.5 -92.5t97.5 -264.5v-509q2 -140 40 -219v-17h-285q-12 25 -24 84q-76 -104 -206 -104q-136 0 -225.5 90t-89.5 233zM250 -218 q0 60 45.5 99.5t117.5 39.5q73 0 118.5 -39.5t45.5 -99.5t-45.5 -99.5t-118.5 -39.5q-72 0 -117.5 39.5t-45.5 99.5zM356 322q0 -120 94 -120q47 0 80 19t49 45v225h-68q-72 0 -113.5 -46t-41.5 -123z" />
<glyph unicode="&#x1ea2;" d="M22 0l455 1456h269l458 -1456h-314l-78 298h-401l-78 -298h-311zM475 543h272l-136 519zM493 1708q57 4 82 18.5t25 46.5q0 40 -27.5 54t-76.5 14l6 137q168 0 251.5 -52.5t83.5 -142.5q0 -56 -30.5 -94.5t-87.5 -49.5v-65h-210z" />
<glyph unicode="&#x1ea3;" horiz-adv-x="964" d="M72 303q0 170 108.5 263t312.5 95h86v87q0 73 -25 103t-73 30q-106 0 -106 -124h-283q0 150 112.5 247.5t284.5 97.5q178 0 275.5 -92.5t97.5 -264.5v-509q2 -140 40 -219v-17h-285q-12 25 -24 84q-76 -104 -206 -104q-136 0 -225.5 90t-89.5 233zM356 322 q0 -120 94 -120q47 0 80 19t49 45v225h-68q-72 0 -113.5 -46t-41.5 -123zM357 1399q57 4 82 18.5t25 46.5q0 40 -27.5 54t-76.5 14l6 137q168 0 251.5 -52.5t83.5 -142.5q0 -56 -30.5 -94.5t-87.5 -49.5v-65h-210z" />
<glyph unicode="&#x1ea4;" d="M22 0l455 1456h269l458 -1456h-314l-78 298h-401l-78 -298h-311zM293 1534l245 230h151l245 -230h-203l-118 126l-118 -126h-202zM475 543h272l-136 519zM868 1667l140 272h220l-203 -272h-157z" />
<glyph unicode="&#x1ea5;" horiz-adv-x="964" d="M72 303q0 170 108.5 263t312.5 95h86v87q0 73 -25 103t-73 30q-106 0 -106 -124h-283q0 150 112.5 247.5t284.5 97.5q178 0 275.5 -92.5t97.5 -264.5v-509q2 -140 40 -219v-17h-285q-12 25 -24 84q-76 -104 -206 -104q-136 0 -225.5 90t-89.5 233zM157 1225l245 230h151 l245 -230h-203l-118 126l-118 -126h-202zM356 322q0 -120 94 -120q47 0 80 19t49 45v225h-68q-72 0 -113.5 -46t-41.5 -123zM732 1358l140 272h220l-203 -272h-157z" />
<glyph unicode="&#x1ea6;" d="M2 1938h219l140 -272h-157zM22 0l455 1456h269l458 -1456h-314l-78 298h-401l-78 -298h-311zM295 1533l245 230h150l246 -230h-202l-118 126l-119 -126h-202zM475 543h272l-136 519z" />
<glyph unicode="&#x1ea7;" horiz-adv-x="964" d="M-134 1629h219l140 -272h-157zM72 303q0 170 108.5 263t312.5 95h86v87q0 73 -25 103t-73 30q-106 0 -106 -124h-283q0 150 112.5 247.5t284.5 97.5q178 0 275.5 -92.5t97.5 -264.5v-509q2 -140 40 -219v-17h-285q-12 25 -24 84q-76 -104 -206 -104q-136 0 -225.5 90 t-89.5 233zM159 1224l245 230h150l246 -230h-202l-118 126l-119 -126h-202zM356 322q0 -120 94 -120q47 0 80 19t49 45v225h-68q-72 0 -113.5 -46t-41.5 -123z" />
<glyph unicode="&#x1ea8;" d="M22 0l455 1456h269l458 -1456h-314l-78 298h-401l-78 -298h-311zM291 1529l240 230h160l241 -230h-195l-125 133l-127 -133h-194zM475 543h272l-136 519zM825 1769q94 8 94 55q0 59 -92 59l7 114q127 0 189.5 -43.5t62.5 -120.5q0 -47 -26.5 -80.5t-73.5 -41.5v-55h-148z " />
<glyph unicode="&#x1ea9;" horiz-adv-x="964" d="M72 303q0 170 108.5 263t312.5 95h86v87q0 73 -25 103t-73 30q-106 0 -106 -124h-283q0 150 112.5 247.5t284.5 97.5q178 0 275.5 -92.5t97.5 -264.5v-509q2 -140 40 -219v-17h-285q-12 25 -24 84q-76 -104 -206 -104q-136 0 -225.5 90t-89.5 233zM155 1220l240 230h160 l241 -230h-195l-125 133l-127 -133h-194zM356 322q0 -120 94 -120q47 0 80 19t49 45v225h-68q-72 0 -113.5 -46t-41.5 -123zM689 1460q94 8 94 55q0 59 -92 59l7 114q127 0 189.5 -43.5t62.5 -120.5q0 -47 -26.5 -80.5t-73.5 -41.5v-55h-148z" />
<glyph unicode="&#x1eaa;" d="M22 0l455 1456h269l458 -1456h-314l-78 298h-401l-78 -298h-311zM295 1524l246 225h149l246 -225h-195l-125 126l-127 -126h-194zM408 1827q0 64 31.5 111t80.5 47q28 0 89.5 -31.5t88.5 -31.5q16 0 28 22.5t12 53.5l94 -37q0 -63 -33 -109.5t-81 -46.5q-38 0 -94 32 t-84 32q-18 0 -28.5 -21t-10.5 -50zM475 543h272l-136 519z" />
<glyph unicode="&#x1eab;" horiz-adv-x="964" d="M72 303q0 170 108.5 263t312.5 95h86v87q0 73 -25 103t-73 30q-106 0 -106 -124h-283q0 150 112.5 247.5t284.5 97.5q178 0 275.5 -92.5t97.5 -264.5v-509q2 -140 40 -219v-17h-285q-12 25 -24 84q-76 -104 -206 -104q-136 0 -225.5 90t-89.5 233zM159 1215l246 225h149 l246 -225h-195l-125 126l-127 -126h-194zM272 1518q0 64 31.5 111t80.5 47q28 0 89.5 -31.5t88.5 -31.5q16 0 28 22.5t12 53.5l94 -37q0 -63 -33 -109.5t-81 -46.5q-38 0 -94 32t-84 32q-18 0 -28.5 -21t-10.5 -50zM356 322q0 -120 94 -120q47 0 80 19t49 45v225h-68 q-72 0 -113.5 -46t-41.5 -123z" />
<glyph unicode="&#x1eac;" d="M22 0l455 1456h269l458 -1456h-314l-78 298h-401l-78 -298h-311zM273 1554v16l260 276h162l265 -280v-12h-221l-125 144l-125 -144h-216zM452 -228q0 60 45.5 99.5t117.5 39.5q73 0 118.5 -39.5t45.5 -99.5t-45.5 -99.5t-118.5 -39.5q-72 0 -117.5 39.5t-45.5 99.5z M475 543h272l-136 519z" />
<glyph unicode="&#x1ead;" horiz-adv-x="964" d="M72 303q0 170 108.5 263t312.5 95h86v87q0 73 -25 103t-73 30q-106 0 -106 -124h-283q0 150 112.5 247.5t284.5 97.5q178 0 275.5 -92.5t97.5 -264.5v-509q2 -140 40 -219v-17h-285q-12 25 -24 84q-76 -104 -206 -104q-136 0 -225.5 90t-89.5 233zM137 1244v16l260 276 h162l265 -280v-12h-221l-125 144l-125 -144h-216zM250 -218q0 60 45.5 99.5t117.5 39.5q73 0 118.5 -39.5t45.5 -99.5t-45.5 -99.5t-118.5 -39.5q-72 0 -117.5 39.5t-45.5 99.5zM356 322q0 -120 94 -120q47 0 80 19t49 45v225h-68q-72 0 -113.5 -46t-41.5 -123z" />
<glyph unicode="&#x1eae;" d="M22 0l455 1456h269l458 -1456h-314l-78 298h-401l-78 -298h-311zM309 1767h184q0 -55 31.5 -83.5t87.5 -28.5t87.5 28.5t31.5 83.5h184q0 -105 -82.5 -169.5t-220.5 -64.5q-137 0 -220 65t-83 169zM475 543h272l-136 519zM543 1769l96 187h194l-147 -187h-143z" />
<glyph unicode="&#x1eaf;" horiz-adv-x="964" d="M72 303q0 170 108.5 263t312.5 95h86v87q0 73 -25 103t-73 30q-106 0 -106 -124h-283q0 150 112.5 247.5t284.5 97.5q178 0 275.5 -92.5t97.5 -264.5v-509q2 -140 40 -219v-17h-285q-12 25 -24 84q-76 -104 -206 -104q-136 0 -225.5 90t-89.5 233zM173 1457h184 q0 -55 31.5 -83.5t87.5 -28.5t87.5 28.5t31.5 83.5h184q0 -105 -82.5 -169.5t-220.5 -64.5q-137 0 -220 65t-83 169zM356 322q0 -120 94 -120q47 0 80 19t49 45v225h-68q-72 0 -113.5 -46t-41.5 -123zM407 1459l96 187h194l-147 -187h-143z" />
<glyph unicode="&#x1eb0;" d="M22 0l455 1456h269l458 -1456h-314l-78 298h-401l-78 -298h-311zM309 1769h184q0 -54 32 -83t87 -29t87 29t32 83h184q0 -105 -82.5 -169.5t-220.5 -64.5q-137 0 -220 65t-83 169zM403 1956h194l96 -187h-143zM475 543h272l-136 519z" />
<glyph unicode="&#x1eb1;" horiz-adv-x="964" d="M72 303q0 170 108.5 263t312.5 95h86v87q0 73 -25 103t-73 30q-106 0 -106 -124h-283q0 150 112.5 247.5t284.5 97.5q178 0 275.5 -92.5t97.5 -264.5v-509q2 -140 40 -219v-17h-285q-12 25 -24 84q-76 -104 -206 -104q-136 0 -225.5 90t-89.5 233zM173 1459h184 q0 -54 32 -83t87 -29t87 29t32 83h184q0 -105 -82.5 -169.5t-220.5 -64.5q-137 0 -220 65t-83 169zM267 1646h194l96 -187h-143zM356 322q0 -120 94 -120q47 0 80 19t49 45v225h-68q-72 0 -113.5 -46t-41.5 -123z" />
<glyph unicode="&#x1eb2;" d="M22 0l455 1456h269l458 -1456h-314l-78 298h-401l-78 -298h-311zM302 1758h186q0 -50 31 -78.5t91 -28.5q58 0 89 28.5t31 78.5h185q0 -104 -82 -168t-223 -64t-224.5 63.5t-83.5 168.5zM475 543h272l-136 519zM501 1895q106 4 106 49q0 32 -27 42.5t-76 10.5l6 107 q151 0 224.5 -40t73.5 -111q0 -45 -30 -74.5t-85 -37.5l-1 -52h-175z" />
<glyph unicode="&#x1eb3;" horiz-adv-x="964" d="M72 303q0 170 108.5 263t312.5 95h86v87q0 73 -25 103t-73 30q-106 0 -106 -124h-283q0 150 112.5 247.5t284.5 97.5q178 0 275.5 -92.5t97.5 -264.5v-509q2 -140 40 -219v-17h-285q-12 25 -24 84q-76 -104 -206 -104q-136 0 -225.5 90t-89.5 233zM166 1449h186 q0 -50 31 -78.5t91 -28.5q58 0 89 28.5t31 78.5h185q0 -104 -82 -168t-223 -64t-224.5 63.5t-83.5 168.5zM356 322q0 -120 94 -120q47 0 80 19t49 45v225h-68q-72 0 -113.5 -46t-41.5 -123zM365 1586q106 4 106 49q0 32 -27 42.5t-76 10.5l6 107q151 0 224.5 -40t73.5 -111 q0 -45 -30 -74.5t-85 -37.5l-1 -52h-175z" />
<glyph unicode="&#x1eb4;" d="M22 0l455 1456h269l458 -1456h-314l-78 298h-401l-78 -298h-311zM305 1762h184q0 -53 32.5 -80.5t87.5 -27.5q59 0 90 29t31 79h184q0 -107 -84 -172t-221 -65q-136 0 -220 65t-84 172zM357 1869q0 75 40 129t99 54q35 0 100.5 -33.5t99.5 -33.5q20 0 34.5 24.5 t14.5 61.5l114 -36q0 -75 -41 -128t-98 -53q-46 0 -106 33.5t-94 33.5q-22 0 -36 -24.5t-14 -61.5zM475 543h272l-136 519z" />
<glyph unicode="&#x1eb5;" horiz-adv-x="964" d="M72 303q0 170 108.5 263t312.5 95h86v87q0 73 -25 103t-73 30q-106 0 -106 -124h-283q0 150 112.5 247.5t284.5 97.5q178 0 275.5 -92.5t97.5 -264.5v-509q2 -140 40 -219v-17h-285q-12 25 -24 84q-76 -104 -206 -104q-136 0 -225.5 90t-89.5 233zM169 1453h184 q0 -53 32.5 -80.5t87.5 -27.5q59 0 90 29t31 79h184q0 -107 -84 -172t-221 -65q-136 0 -220 65t-84 172zM221 1560q0 75 40 129t99 54q35 0 100.5 -33.5t99.5 -33.5q20 0 34.5 24.5t14.5 61.5l114 -36q0 -75 -41 -128t-98 -53q-46 0 -106 33.5t-94 33.5q-22 0 -36 -24.5 t-14 -61.5zM356 322q0 -120 94 -120q47 0 80 19t49 45v225h-68q-72 0 -113.5 -46t-41.5 -123z" />
<glyph unicode="&#x1eb6;" d="M22 0l455 1456h269l458 -1456h-314l-78 298h-401l-78 -298h-311zM267 1837h207q0 -62 37.5 -96.5t103.5 -34.5q65 0 102 34.5t37 96.5h208q0 -133 -95.5 -215t-251.5 -82q-157 0 -252.5 82t-95.5 215zM452 -228q0 60 45.5 99.5t117.5 39.5q73 0 118.5 -39.5t45.5 -99.5 t-45.5 -99.5t-118.5 -39.5q-72 0 -117.5 39.5t-45.5 99.5zM475 543h272l-136 519z" />
<glyph unicode="&#x1eb7;" horiz-adv-x="964" d="M72 303q0 170 108.5 263t312.5 95h86v87q0 73 -25 103t-73 30q-106 0 -106 -124h-283q0 150 112.5 247.5t284.5 97.5q178 0 275.5 -92.5t97.5 -264.5v-509q2 -140 40 -219v-17h-285q-12 25 -24 84q-76 -104 -206 -104q-136 0 -225.5 90t-89.5 233zM131 1527h207 q0 -62 37.5 -96.5t103.5 -34.5q65 0 102 34.5t37 96.5h208q0 -133 -95.5 -215t-251.5 -82q-157 0 -252.5 82t-95.5 215zM250 -218q0 60 45.5 99.5t117.5 39.5q73 0 118.5 -39.5t45.5 -99.5t-45.5 -99.5t-118.5 -39.5q-72 0 -117.5 39.5t-45.5 99.5zM356 322q0 -120 94 -120 q47 0 80 19t49 45v225h-68q-72 0 -113.5 -46t-41.5 -123z" />
<glyph unicode="&#x1eb8;" horiz-adv-x="1005" d="M117 0v1456h834v-245h-540v-344h458v-237h-458v-386h542v-244h-836zM395 -224q0 60 45.5 99.5t117.5 39.5q73 0 118.5 -39.5t45.5 -99.5t-45.5 -99.5t-118.5 -39.5q-72 0 -117.5 39.5t-45.5 99.5z" />
<glyph unicode="&#x1eb9;" horiz-adv-x="980" d="M78 482v86q0 256 112 395t321 139q204 0 307 -130.5t105 -386.5v-139h-563q6 -120 53 -175.5t145 -55.5q142 0 237 97l111 -171q-52 -72 -151 -116.5t-215 -44.5q-218 0 -340 130t-122 372zM335 -234q0 60 45.5 99.5t117.5 39.5q73 0 118.5 -39.5t45.5 -99.5t-45.5 -99.5 t-118.5 -39.5q-72 0 -117.5 39.5t-45.5 99.5zM362 644h283v26q-2 97 -32 147t-104 50t-107.5 -53t-39.5 -170z" />
<glyph unicode="&#x1eba;" horiz-adv-x="1005" d="M117 0v1456h834v-245h-540v-344h458v-237h-458v-386h542v-244h-836zM435 1711q57 4 82 18.5t25 46.5q0 40 -27.5 54t-76.5 14l6 137q168 0 251.5 -52.5t83.5 -142.5q0 -56 -30.5 -94.5t-87.5 -49.5v-65h-210z" />
<glyph unicode="&#x1ebb;" horiz-adv-x="980" d="M78 482v86q0 256 112 395t321 139q204 0 307 -130.5t105 -386.5v-139h-563q6 -120 53 -175.5t145 -55.5q142 0 237 97l111 -171q-52 -72 -151 -116.5t-215 -44.5q-218 0 -340 130t-122 372zM352 1399q57 4 82 18.5t25 46.5q0 40 -27.5 54t-76.5 14l6 137 q168 0 251.5 -52.5t83.5 -142.5q0 -56 -30.5 -94.5t-87.5 -49.5v-65h-210zM362 644h283v26q-2 97 -32 147t-104 50t-107.5 -53t-39.5 -170z" />
<glyph unicode="&#x1ebc;" horiz-adv-x="1005" d="M117 0v1456h834v-245h-540v-344h458v-237h-458v-386h542v-244h-836zM229 1568q0 111 57 189.5t140 78.5q22 0 42.5 -6.5t71 -35t72.5 -36t44 -7.5q26 0 45.5 24.5t19.5 70.5l159 -12q0 -111 -56.5 -188.5t-142.5 -77.5q-32 0 -56.5 9t-69 37t-63 34t-40.5 6 q-27 0 -45 -24.5t-18 -70.5z" />
<glyph unicode="&#x1ebd;" horiz-adv-x="980" d="M78 482v86q0 256 112 395t321 139q204 0 307 -130.5t105 -386.5v-139h-563q6 -120 53 -175.5t145 -55.5q142 0 237 97l111 -171q-52 -72 -151 -116.5t-215 -44.5q-218 0 -340 130t-122 372zM146 1256q0 111 57 189.5t140 78.5q22 0 42.5 -6.5t71 -35t72.5 -36t44 -7.5 q26 0 45.5 24.5t19.5 70.5l159 -12q0 -111 -56.5 -188.5t-142.5 -77.5q-32 0 -56.5 9t-69 37t-63 34t-40.5 6q-27 0 -45 -24.5t-18 -70.5zM362 644h283v26q-2 97 -32 147t-104 50t-107.5 -53t-39.5 -170z" />
<glyph unicode="&#x1ebe;" horiz-adv-x="1005" d="M117 0v1456h834v-245h-540v-344h458v-237h-458v-386h542v-244h-836zM235 1537l245 230h151l245 -230h-203l-118 126l-118 -126h-202zM810 1670l140 272h220l-203 -272h-157z" />
<glyph unicode="&#x1ebf;" horiz-adv-x="980" d="M78 482v86q0 256 112 395t321 139q204 0 307 -130.5t105 -386.5v-139h-563q6 -120 53 -175.5t145 -55.5q142 0 237 97l111 -171q-52 -72 -151 -116.5t-215 -44.5q-218 0 -340 130t-122 372zM152 1225l245 230h151l245 -230h-203l-118 126l-118 -126h-202zM362 644h283v26 q-2 97 -32 147t-104 50t-107.5 -53t-39.5 -170zM727 1358l140 272h220l-203 -272h-157z" />
<glyph unicode="&#x1ec0;" horiz-adv-x="1005" d="M-56 1941h219l140 -272h-157zM117 0v1456h834v-245h-540v-344h458v-237h-458v-386h542v-244h-836zM237 1536l245 230h150l246 -230h-202l-118 126l-119 -126h-202z" />
<glyph unicode="&#x1ec1;" horiz-adv-x="980" d="M-139 1629h219l140 -272h-157zM78 482v86q0 256 112 395t321 139q204 0 307 -130.5t105 -386.5v-139h-563q6 -120 53 -175.5t145 -55.5q142 0 237 97l111 -171q-52 -72 -151 -116.5t-215 -44.5q-218 0 -340 130t-122 372zM154 1224l245 230h150l246 -230h-202l-118 126 l-119 -126h-202zM362 644h283v26q-2 97 -32 147t-104 50t-107.5 -53t-39.5 -170z" />
<glyph unicode="&#x1ec2;" horiz-adv-x="1005" d="M117 0v1456h834v-245h-540v-344h458v-237h-458v-386h542v-244h-836zM233 1532l240 230h160l241 -230h-195l-125 133l-127 -133h-194zM767 1772q94 8 94 55q0 59 -92 59l7 114q127 0 189.5 -43.5t62.5 -120.5q0 -47 -26.5 -80.5t-73.5 -41.5v-55h-148z" />
<glyph unicode="&#x1ec3;" horiz-adv-x="980" d="M78 482v86q0 256 112 395t321 139q204 0 307 -130.5t105 -386.5v-139h-563q6 -120 53 -175.5t145 -55.5q142 0 237 97l111 -171q-52 -72 -151 -116.5t-215 -44.5q-218 0 -340 130t-122 372zM150 1220l240 230h160l241 -230h-195l-125 133l-127 -133h-194zM362 644h283v26 q-2 97 -32 147t-104 50t-107.5 -53t-39.5 -170zM684 1460q94 8 94 55q0 59 -92 59l7 114q127 0 189.5 -43.5t62.5 -120.5q0 -47 -26.5 -80.5t-73.5 -41.5v-55h-148z" />
<glyph unicode="&#x1ec4;" horiz-adv-x="1005" d="M117 0v1456h834v-245h-540v-344h458v-237h-458v-386h542v-244h-836zM237 1527l246 225h149l246 -225h-195l-125 126l-127 -126h-194zM350 1830q0 64 31.5 111t80.5 47q28 0 89.5 -31.5t88.5 -31.5q16 0 28 22.5t12 53.5l94 -37q0 -63 -33 -109.5t-81 -46.5q-38 0 -94 32 t-84 32q-18 0 -28.5 -21t-10.5 -50z" />
<glyph unicode="&#x1ec5;" horiz-adv-x="980" d="M78 482v86q0 256 112 395t321 139q204 0 307 -130.5t105 -386.5v-139h-563q6 -120 53 -175.5t145 -55.5q142 0 237 97l111 -171q-52 -72 -151 -116.5t-215 -44.5q-218 0 -340 130t-122 372zM154 1215l246 225h149l246 -225h-195l-125 126l-127 -126h-194zM267 1518 q0 64 31.5 111t80.5 47q28 0 89.5 -31.5t88.5 -31.5q16 0 28 22.5t12 53.5l94 -37q0 -63 -33 -109.5t-81 -46.5q-38 0 -94 32t-84 32q-18 0 -28.5 -21t-10.5 -50zM362 644h283v26q-2 97 -32 147t-104 50t-107.5 -53t-39.5 -170z" />
<glyph unicode="&#x1ec6;" horiz-adv-x="1005" d="M117 0v1456h834v-245h-540v-344h458v-237h-458v-386h542v-244h-836zM215 1557v16l260 276h162l265 -280v-12h-221l-125 144l-125 -144h-216zM395 -224q0 60 45.5 99.5t117.5 39.5q73 0 118.5 -39.5t45.5 -99.5t-45.5 -99.5t-118.5 -39.5q-72 0 -117.5 39.5t-45.5 99.5z " />
<glyph unicode="&#x1ec7;" horiz-adv-x="980" d="M78 482v86q0 256 112 395t321 139q204 0 307 -130.5t105 -386.5v-139h-563q6 -120 53 -175.5t145 -55.5q142 0 237 97l111 -171q-52 -72 -151 -116.5t-215 -44.5q-218 0 -340 130t-122 372zM132 1244v16l260 276h162l265 -280v-12h-221l-125 144l-125 -144h-216z M335 -234q0 60 45.5 99.5t117.5 39.5q73 0 118.5 -39.5t45.5 -99.5t-45.5 -99.5t-118.5 -39.5q-72 0 -117.5 39.5t-45.5 99.5zM362 644h283v26q-2 97 -32 147t-104 50t-107.5 -53t-39.5 -170z" />
<glyph unicode="&#x1ec8;" horiz-adv-x="554" d="M130 0v1456h294v-1456h-294zM154 1711q57 4 82 18.5t25 46.5q0 40 -27.5 54t-76.5 14l6 137q168 0 251.5 -52.5t83.5 -142.5q0 -56 -30.5 -94.5t-87.5 -49.5v-65h-210z" />
<glyph unicode="&#x1ec9;" horiz-adv-x="537" d="M124 0v1082h283v-1082h-283zM147 1383q57 4 82 18.5t25 46.5q0 40 -27.5 54t-76.5 14l6 137q168 0 251.5 -52.5t83.5 -142.5q0 -56 -30.5 -94.5t-87.5 -49.5v-65h-210z" />
<glyph unicode="&#x1eca;" horiz-adv-x="554" d="M112 -232q0 60 45.5 99.5t117.5 39.5q73 0 118.5 -39.5t45.5 -99.5t-45.5 -99.5t-118.5 -39.5q-72 0 -117.5 39.5t-45.5 99.5zM130 0v1456h294v-1456h-294z" />
<glyph unicode="&#x1ecb;" horiz-adv-x="516" d="M93 -224q0 60 45.5 99.5t117.5 39.5q73 0 118.5 -39.5t45.5 -99.5t-45.5 -99.5t-118.5 -39.5q-72 0 -117.5 39.5t-45.5 99.5zM103 1362q0 66 42 108t112 42t112 -42t42 -108q0 -65 -41.5 -108t-112.5 -43t-112.5 43t-41.5 108zM116 0v1082h284v-1082h-284z" />
<glyph unicode="&#x1ecc;" horiz-adv-x="1236" d="M92 590v249q0 300 139 468.5t386 168.5q243 0 383 -165.5t142 -464.5v-249q0 -293 -138.5 -455t-384.5 -162q-245 0 -385 160.5t-142 449.5zM386 597q0 -191 57 -281.5t176 -90.5q115 0 171 88.5t57 274.5v253q0 197 -56 293t-174 96q-117 0 -173 -92.5t-58 -281.5v-259z M458 -234q0 60 45.5 99.5t117.5 39.5q73 0 118.5 -39.5t45.5 -99.5t-45.5 -99.5t-118.5 -39.5q-72 0 -117.5 39.5t-45.5 99.5z" />
<glyph unicode="&#x1ecd;" horiz-adv-x="1019" d="M70 507v69q0 246 116 386t321 140q207 0 323 -140t116 -388v-69q0 -247 -115 -386t-322 -139q-208 0 -323.5 139.5t-115.5 387.5zM343 -240q0 60 45.5 99.5t117.5 39.5q73 0 118.5 -39.5t45.5 -99.5t-45.5 -99.5t-118.5 -39.5q-72 0 -117.5 39.5t-45.5 99.5zM354 505 q0 -290 155 -290q143 0 154 242l1 119q0 148 -41 219.5t-116 71.5q-72 0 -112.5 -71.5t-40.5 -219.5v-71z" />
<glyph unicode="&#x1ece;" horiz-adv-x="1236" d="M92 590v249q0 300 139 468.5t386 168.5q243 0 383 -165.5t142 -464.5v-249q0 -293 -138.5 -455t-384.5 -162q-245 0 -385 160.5t-142 449.5zM386 597q0 -191 57 -281.5t176 -90.5q115 0 171 88.5t57 274.5v253q0 197 -56 293t-174 96q-117 0 -173 -92.5t-58 -281.5v-259z M497 1708q57 4 82 18.5t25 46.5q0 40 -27.5 54t-76.5 14l6 137q168 0 251.5 -52.5t83.5 -142.5q0 -56 -30.5 -94.5t-87.5 -49.5v-65h-210z" />
<glyph unicode="&#x1ecf;" horiz-adv-x="1019" d="M70 507v69q0 246 116 386t321 140q207 0 323 -140t116 -388v-69q0 -247 -115 -386t-322 -139q-208 0 -323.5 139.5t-115.5 387.5zM354 505q0 -290 155 -290q143 0 154 242l1 119q0 148 -41 219.5t-116 71.5q-72 0 -112.5 -71.5t-40.5 -219.5v-71zM384 1399q57 4 82 18.5 t25 46.5q0 40 -27.5 54t-76.5 14l6 137q168 0 251.5 -52.5t83.5 -142.5q0 -56 -30.5 -94.5t-87.5 -49.5v-65h-210z" />
<glyph unicode="&#x1ed0;" horiz-adv-x="1236" d="M92 590v249q0 300 139 468.5t386 168.5q243 0 383 -165.5t142 -464.5v-249q0 -293 -138.5 -455t-384.5 -162q-245 0 -385 160.5t-142 449.5zM297 1534l245 230h151l245 -230h-203l-118 126l-118 -126h-202zM386 597q0 -191 57 -281.5t176 -90.5q115 0 171 88.5t57 274.5 v253q0 197 -56 293t-174 96q-117 0 -173 -92.5t-58 -281.5v-259zM872 1667l140 272h220l-203 -272h-157z" />
<glyph unicode="&#x1ed1;" horiz-adv-x="1019" d="M70 507v69q0 246 116 386t321 140q207 0 323 -140t116 -388v-69q0 -247 -115 -386t-322 -139q-208 0 -323.5 139.5t-115.5 387.5zM184 1225l245 230h151l245 -230h-203l-118 126l-118 -126h-202zM354 505q0 -290 155 -290q143 0 154 242l1 119q0 148 -41 219.5t-116 71.5 q-72 0 -112.5 -71.5t-40.5 -219.5v-71zM759 1358l140 272h220l-203 -272h-157z" />
<glyph unicode="&#x1ed2;" horiz-adv-x="1236" d="M6 1938h219l140 -272h-157zM92 590v249q0 300 139 468.5t386 168.5q243 0 383 -165.5t142 -464.5v-249q0 -293 -138.5 -455t-384.5 -162q-245 0 -385 160.5t-142 449.5zM299 1533l245 230h150l246 -230h-202l-118 126l-119 -126h-202zM386 597q0 -191 57 -281.5 t176 -90.5q115 0 171 88.5t57 274.5v253q0 197 -56 293t-174 96q-117 0 -173 -92.5t-58 -281.5v-259z" />
<glyph unicode="&#x1ed3;" horiz-adv-x="1019" d="M-107 1629h219l140 -272h-157zM70 507v69q0 246 116 386t321 140q207 0 323 -140t116 -388v-69q0 -247 -115 -386t-322 -139q-208 0 -323.5 139.5t-115.5 387.5zM186 1224l245 230h150l246 -230h-202l-118 126l-119 -126h-202zM354 505q0 -290 155 -290q143 0 154 242 l1 119q0 148 -41 219.5t-116 71.5q-72 0 -112.5 -71.5t-40.5 -219.5v-71z" />
<glyph unicode="&#x1ed4;" horiz-adv-x="1236" d="M92 590v249q0 300 139 468.5t386 168.5q243 0 383 -165.5t142 -464.5v-249q0 -293 -138.5 -455t-384.5 -162q-245 0 -385 160.5t-142 449.5zM295 1529l240 230h160l241 -230h-195l-125 133l-127 -133h-194zM386 597q0 -191 57 -281.5t176 -90.5q115 0 171 88.5t57 274.5 v253q0 197 -56 293t-174 96q-117 0 -173 -92.5t-58 -281.5v-259zM829 1769q94 8 94 55q0 59 -92 59l7 114q127 0 189.5 -43.5t62.5 -120.5q0 -47 -26.5 -80.5t-73.5 -41.5v-55h-148z" />
<glyph unicode="&#x1ed5;" horiz-adv-x="1019" d="M70 507v69q0 246 116 386t321 140q207 0 323 -140t116 -388v-69q0 -247 -115 -386t-322 -139q-208 0 -323.5 139.5t-115.5 387.5zM182 1220l240 230h160l241 -230h-195l-125 133l-127 -133h-194zM354 505q0 -290 155 -290q143 0 154 242l1 119q0 148 -41 219.5t-116 71.5 q-72 0 -112.5 -71.5t-40.5 -219.5v-71zM716 1460q94 8 94 55q0 59 -92 59l7 114q127 0 189.5 -43.5t62.5 -120.5q0 -47 -26.5 -80.5t-73.5 -41.5v-55h-148z" />
<glyph unicode="&#x1ed6;" horiz-adv-x="1236" d="M92 590v249q0 300 139 468.5t386 168.5q243 0 383 -165.5t142 -464.5v-249q0 -293 -138.5 -455t-384.5 -162q-245 0 -385 160.5t-142 449.5zM299 1524l246 225h149l246 -225h-195l-125 126l-127 -126h-194zM386 597q0 -191 57 -281.5t176 -90.5q115 0 171 88.5t57 274.5 v253q0 197 -56 293t-174 96q-117 0 -173 -92.5t-58 -281.5v-259zM412 1827q0 64 31.5 111t80.5 47q28 0 89.5 -31.5t88.5 -31.5q16 0 28 22.5t12 53.5l94 -37q0 -63 -33 -109.5t-81 -46.5q-38 0 -94 32t-84 32q-18 0 -28.5 -21t-10.5 -50z" />
<glyph unicode="&#x1ed7;" horiz-adv-x="1019" d="M70 507v69q0 246 116 386t321 140q207 0 323 -140t116 -388v-69q0 -247 -115 -386t-322 -139q-208 0 -323.5 139.5t-115.5 387.5zM186 1215l246 225h149l246 -225h-195l-125 126l-127 -126h-194zM299 1518q0 64 31.5 111t80.5 47q28 0 89.5 -31.5t88.5 -31.5 q16 0 28 22.5t12 53.5l94 -37q0 -63 -33 -109.5t-81 -46.5q-38 0 -94 32t-84 32q-18 0 -28.5 -21t-10.5 -50zM354 505q0 -290 155 -290q143 0 154 242l1 119q0 148 -41 219.5t-116 71.5q-72 0 -112.5 -71.5t-40.5 -219.5v-71z" />
<glyph unicode="&#x1ed8;" horiz-adv-x="1236" d="M92 590v249q0 300 139 468.5t386 168.5q243 0 383 -165.5t142 -464.5v-249q0 -293 -138.5 -455t-384.5 -162q-245 0 -385 160.5t-142 449.5zM277 1554v16l260 276h162l265 -280v-12h-221l-125 144l-125 -144h-216zM386 597q0 -191 57 -281.5t176 -90.5q115 0 171 88.5 t57 274.5v253q0 197 -56 293t-174 96q-117 0 -173 -92.5t-58 -281.5v-259zM458 -234q0 60 45.5 99.5t117.5 39.5q73 0 118.5 -39.5t45.5 -99.5t-45.5 -99.5t-118.5 -39.5q-72 0 -117.5 39.5t-45.5 99.5z" />
<glyph unicode="&#x1ed9;" horiz-adv-x="1019" d="M70 507v69q0 246 116 386t321 140q207 0 323 -140t116 -388v-69q0 -247 -115 -386t-322 -139q-208 0 -323.5 139.5t-115.5 387.5zM164 1244v16l260 276h162l265 -280v-12h-221l-125 144l-125 -144h-216zM343 -240q0 60 45.5 99.5t117.5 39.5q73 0 118.5 -39.5t45.5 -99.5 t-45.5 -99.5t-118.5 -39.5q-72 0 -117.5 39.5t-45.5 99.5zM354 505q0 -290 155 -290q143 0 154 242l1 119q0 148 -41 219.5t-116 71.5q-72 0 -112.5 -71.5t-40.5 -219.5v-71z" />
<glyph unicode="&#x1eda;" horiz-adv-x="1245" d="M74 686v73q0 212 66 375.5t187.5 252.5t278.5 89q231 0 378 -184q47 24 65 95t18 179h188q0 -334 -187 -418q70 -162 72 -377v-76q0 -214 -65.5 -376t-187.5 -250.5t-279 -88.5q-155 0 -277 87t-189 248t-68 371zM371 695q0 -227 61.5 -347t175.5 -120q113 0 173 118 t61 342v73q0 229 -61.5 347t-174.5 118t-173.5 -116t-61.5 -342v-73zM471 1539l196 310h318l-278 -310h-236z" />
<glyph unicode="&#x1edb;" horiz-adv-x="1051" d="M70 551q0 252 119 401.5t317 149.5t316 -146q53 55 53 227h167q0 -266 -149 -348q52 -125 52 -305q0 -251 -118 -400.5t-319 -149.5q-192 0 -309 136.5t-128 370.5zM352 530q0 -315 156 -315q141 0 152 269l1 67q0 316 -155 316q-75 0 -114.5 -79.5t-39.5 -257.5z M365 1226l196 310h318l-278 -310h-236z" />
<glyph unicode="&#x1edc;" horiz-adv-x="1245" d="M74 686v73q0 212 66 375.5t187.5 252.5t278.5 89q231 0 378 -184q47 24 65 95t18 179h188q0 -334 -187 -418q70 -162 72 -377v-76q0 -214 -65.5 -376t-187.5 -250.5t-279 -88.5q-155 0 -277 87t-189 248t-68 371zM239 1849h317l198 -310h-239zM371 695q0 -227 61.5 -347 t175.5 -120q113 0 173 118t61 342v73q0 229 -61.5 347t-174.5 118t-173.5 -116t-61.5 -342v-73z" />
<glyph unicode="&#x1edd;" horiz-adv-x="1051" d="M70 551q0 252 119 401.5t317 149.5t316 -146q53 55 53 227h167q0 -266 -149 -348q52 -125 52 -305q0 -251 -118 -400.5t-319 -149.5q-192 0 -309 136.5t-128 370.5zM133 1536h317l198 -310h-239zM352 530q0 -315 156 -315q141 0 152 269l1 67q0 316 -155 316 q-75 0 -114.5 -79.5t-39.5 -257.5z" />
<glyph unicode="&#x1ede;" horiz-adv-x="1245" d="M74 686v73q0 212 66 375.5t187.5 252.5t278.5 89q231 0 378 -184q47 24 65 95t18 179h188q0 -334 -187 -418q70 -162 72 -377v-76q0 -214 -65.5 -376t-187.5 -250.5t-279 -88.5q-155 0 -277 87t-189 248t-68 371zM371 695q0 -227 61.5 -347t175.5 -120q113 0 173 118 t61 342v73q0 229 -61.5 347t-174.5 118t-173.5 -116t-61.5 -342v-73zM489 1711q57 4 82 18.5t25 46.5q0 40 -27.5 54t-76.5 14l6 137q168 0 251.5 -52.5t83.5 -142.5q0 -56 -30.5 -94.5t-87.5 -49.5v-65h-210z" />
<glyph unicode="&#x1edf;" horiz-adv-x="1051" d="M70 551q0 252 119 401.5t317 149.5t316 -146q53 55 53 227h167q0 -266 -149 -348q52 -125 52 -305q0 -251 -118 -400.5t-319 -149.5q-192 0 -309 136.5t-128 370.5zM352 530q0 -315 156 -315q141 0 152 269l1 67q0 316 -155 316q-75 0 -114.5 -79.5t-39.5 -257.5z M383 1399q57 4 82 18.5t25 46.5q0 40 -27.5 54t-76.5 14l6 137q168 0 251.5 -52.5t83.5 -142.5q0 -56 -30.5 -94.5t-87.5 -49.5v-65h-210z" />
<glyph unicode="&#x1ee0;" horiz-adv-x="1245" d="M74 686v73q0 212 66 375.5t187.5 252.5t278.5 89q231 0 378 -184q47 24 65 95t18 179h188q0 -334 -187 -418q70 -162 72 -377v-76q0 -214 -65.5 -376t-187.5 -250.5t-279 -88.5q-155 0 -277 87t-189 248t-68 371zM283 1568q0 111 57 189.5t140 78.5q22 0 42.5 -6.5 t71 -35t72.5 -36t44 -7.5q26 0 45.5 24.5t19.5 70.5l159 -12q0 -111 -56.5 -188.5t-142.5 -77.5q-32 0 -56.5 9t-69 37t-63 34t-40.5 6q-27 0 -45 -24.5t-18 -70.5zM371 695q0 -227 61.5 -347t175.5 -120q113 0 173 118t61 342v73q0 229 -61.5 347t-174.5 118t-173.5 -116 t-61.5 -342v-73z" />
<glyph unicode="&#x1ee1;" horiz-adv-x="1051" d="M70 551q0 252 119 401.5t317 149.5t316 -146q53 55 53 227h167q0 -266 -149 -348q52 -125 52 -305q0 -251 -118 -400.5t-319 -149.5q-192 0 -309 136.5t-128 370.5zM177 1256q0 111 57 189.5t140 78.5q22 0 42.5 -6.5t71 -35t72.5 -36t44 -7.5q26 0 45.5 24.5t19.5 70.5 l159 -12q0 -111 -56.5 -188.5t-142.5 -77.5q-32 0 -56.5 9t-69 37t-63 34t-40.5 6q-27 0 -45 -24.5t-18 -70.5zM352 530q0 -315 156 -315q141 0 152 269l1 67q0 316 -155 316q-75 0 -114.5 -79.5t-39.5 -257.5z" />
<glyph unicode="&#x1ee2;" horiz-adv-x="1245" d="M74 686v73q0 212 66 375.5t187.5 252.5t278.5 89q231 0 378 -184q47 24 65 95t18 179h188q0 -334 -187 -418q70 -162 72 -377v-76q0 -214 -65.5 -376t-187.5 -250.5t-279 -88.5q-155 0 -277 87t-189 248t-68 371zM371 695q0 -227 61.5 -347t175.5 -120q113 0 173 118 t61 342v73q0 229 -61.5 347t-174.5 118t-173.5 -116t-61.5 -342v-73zM428 -234q0 60 45.5 99.5t117.5 39.5q73 0 118.5 -39.5t45.5 -99.5t-45.5 -99.5t-118.5 -39.5q-72 0 -117.5 39.5t-45.5 99.5z" />
<glyph unicode="&#x1ee3;" horiz-adv-x="1051" d="M70 551q0 252 119 401.5t317 149.5t316 -146q53 55 53 227h167q0 -266 -149 -348q52 -125 52 -305q0 -251 -118 -400.5t-319 -149.5q-192 0 -309 136.5t-128 370.5zM340 -243q0 60 45.5 99.5t117.5 39.5q73 0 118.5 -39.5t45.5 -99.5t-45.5 -99.5t-118.5 -39.5 q-72 0 -117.5 39.5t-45.5 99.5zM352 530q0 -315 156 -315q141 0 152 269l1 67q0 316 -155 316q-75 0 -114.5 -79.5t-39.5 -257.5z" />
<glyph unicode="&#x1ee4;" horiz-adv-x="1170" d="M105 455v1001h296v-1002q0 -124 40 -177t145 -53t144 52.5t40 172.5v1007h294v-1008q-2 -227 -125 -347.5t-353 -120.5q-234 0 -357.5 122t-123.5 353zM417 -234q0 60 45.5 99.5t117.5 39.5q73 0 118.5 -39.5t45.5 -99.5t-45.5 -99.5t-118.5 -39.5q-72 0 -117.5 39.5 t-45.5 99.5z" />
<glyph unicode="&#x1ee5;" horiz-adv-x="1008" d="M96 381v701h283v-708q2 -158 105 -158q97 0 140 84v782h285v-1082h-266l-8 99q-88 -119 -236 -119q-149 0 -226 102.5t-77 298.5zM244 -234q0 60 45.5 99.5t117.5 39.5q73 0 118.5 -39.5t45.5 -99.5t-45.5 -99.5t-118.5 -39.5q-72 0 -117.5 39.5t-45.5 99.5z" />
<glyph unicode="&#x1ee6;" horiz-adv-x="1170" d="M105 455v1001h296v-1002q0 -124 40 -177t145 -53t144 52.5t40 172.5v1007h294v-1008q-2 -227 -125 -347.5t-353 -120.5q-234 0 -357.5 122t-123.5 353zM457 1708q57 4 82 18.5t25 46.5q0 40 -27.5 54t-76.5 14l6 137q168 0 251.5 -52.5t83.5 -142.5q0 -56 -30.5 -94.5 t-87.5 -49.5v-65h-210z" />
<glyph unicode="&#x1ee7;" horiz-adv-x="1008" d="M96 381v701h283v-708q2 -158 105 -158q97 0 140 84v782h285v-1082h-266l-8 99q-88 -119 -236 -119q-149 0 -226 102.5t-77 298.5zM378 1399q57 4 82 18.5t25 46.5q0 40 -27.5 54t-76.5 14l6 137q168 0 251.5 -52.5t83.5 -142.5q0 -56 -30.5 -94.5t-87.5 -49.5v-65h-210z " />
<glyph unicode="&#x1ee8;" horiz-adv-x="1282" d="M105 489v967h296v-980q6 -252 185 -252q178 0 184 252v980h294v-227q62 7 95 35.5t48 83.5t15 189h184q0 -240 -81 -349t-261 -118v-580q-2 -238 -130 -374t-348 -136q-222 0 -350.5 135.5t-130.5 373.5zM491 1548l196 310h318l-278 -310h-236z" />
<glyph unicode="&#x1ee9;" horiz-adv-x="1107" d="M96 381v701h283v-708q2 -158 105 -158q97 0 140 84v782h285v-136q50 16 71 63t21 168h164q0 -178 -60.5 -266t-195.5 -107v-804h-266l-8 99q-88 -119 -236 -119q-149 0 -226 102.5t-77 298.5zM364 1206l196 310h318l-278 -310h-236z" />
<glyph unicode="&#x1eea;" horiz-adv-x="1282" d="M105 489v967h296v-980q6 -252 185 -252q178 0 184 252v980h294v-227q62 7 95 35.5t48 83.5t15 189h184q0 -240 -81 -349t-261 -118v-580q-2 -238 -130 -374t-348 -136q-222 0 -350.5 135.5t-130.5 373.5zM259 1858h317l198 -310h-239z" />
<glyph unicode="&#x1eeb;" horiz-adv-x="1107" d="M96 381v701h283v-708q2 -158 105 -158q97 0 140 84v782h285v-136q50 16 71 63t21 168h164q0 -178 -60.5 -266t-195.5 -107v-804h-266l-8 99q-88 -119 -236 -119q-149 0 -226 102.5t-77 298.5zM132 1516h317l198 -310h-239z" />
<glyph unicode="&#x1eec;" horiz-adv-x="1282" d="M105 489v967h296v-980q6 -252 185 -252q178 0 184 252v980h294v-227q62 7 95 35.5t48 83.5t15 189h184q0 -240 -81 -349t-261 -118v-580q-2 -238 -130 -374t-348 -136q-222 0 -350.5 135.5t-130.5 373.5zM509 1720q57 4 82 18.5t25 46.5q0 40 -27.5 54t-76.5 14l6 137 q168 0 251.5 -52.5t83.5 -142.5q0 -56 -30.5 -94.5t-87.5 -49.5v-65h-210z" />
<glyph unicode="&#x1eed;" horiz-adv-x="1107" d="M96 381v701h283v-708q2 -158 105 -158q97 0 140 84v782h285v-136q50 16 71 63t21 168h164q0 -178 -60.5 -266t-195.5 -107v-804h-266l-8 99q-88 -119 -236 -119q-149 0 -226 102.5t-77 298.5zM382 1378q57 4 82 18.5t25 46.5q0 40 -27.5 54t-76.5 14l6 137 q168 0 251.5 -52.5t83.5 -142.5q0 -56 -30.5 -94.5t-87.5 -49.5v-65h-210z" />
<glyph unicode="&#x1eee;" horiz-adv-x="1282" d="M105 489v967h296v-980q6 -252 185 -252q178 0 184 252v980h294v-227q62 7 95 35.5t48 83.5t15 189h184q0 -240 -81 -349t-261 -118v-580q-2 -238 -130 -374t-348 -136q-222 0 -350.5 135.5t-130.5 373.5zM303 1577q0 111 57 189.5t140 78.5q22 0 42.5 -6.5t71 -35 t72.5 -36t44 -7.5q26 0 45.5 24.5t19.5 70.5l159 -12q0 -111 -56.5 -188.5t-142.5 -77.5q-32 0 -56.5 9t-69 37t-63 34t-40.5 6q-27 0 -45 -24.5t-18 -70.5z" />
<glyph unicode="&#x1eef;" horiz-adv-x="1107" d="M96 381v701h283v-708q2 -158 105 -158q97 0 140 84v782h285v-136q50 16 71 63t21 168h164q0 -178 -60.5 -266t-195.5 -107v-804h-266l-8 99q-88 -119 -236 -119q-149 0 -226 102.5t-77 298.5zM176 1235q0 111 57 189.5t140 78.5q22 0 42.5 -6.5t71 -35t72.5 -36t44 -7.5 q26 0 45.5 24.5t19.5 70.5l159 -12q0 -111 -56.5 -188.5t-142.5 -77.5q-32 0 -56.5 9t-69 37t-63 34t-40.5 6q-27 0 -45 -24.5t-18 -70.5z" />
<glyph unicode="&#x1ef0;" horiz-adv-x="1282" d="M105 489v967h296v-980q6 -252 185 -252q178 0 184 252v980h294v-227q62 7 95 35.5t48 83.5t15 189h184q0 -240 -81 -349t-261 -118v-580q-2 -238 -130 -374t-348 -136q-222 0 -350.5 135.5t-130.5 373.5zM468 -243q0 60 45.5 99.5t117.5 39.5q73 0 118.5 -39.5 t45.5 -99.5t-45.5 -99.5t-118.5 -39.5q-72 0 -117.5 39.5t-45.5 99.5z" />
<glyph unicode="&#x1ef1;" horiz-adv-x="1107" d="M96 381v701h283v-708q2 -158 105 -158q97 0 140 84v782h285v-136q50 16 71 63t21 168h164q0 -178 -60.5 -266t-195.5 -107v-804h-266l-8 99q-88 -119 -236 -119q-149 0 -226 102.5t-77 298.5zM246 -234q0 60 45.5 99.5t117.5 39.5q73 0 118.5 -39.5t45.5 -99.5 t-45.5 -99.5t-118.5 -39.5q-72 0 -117.5 39.5t-45.5 99.5z" />
<glyph unicode="&#x1ef2;" horiz-adv-x="1111" d="M16 1456h320l220 -654l219 654h320l-390 -928v-528h-298v528zM187 1846h317l198 -310h-239z" />
<glyph unicode="&#x1ef3;" horiz-adv-x="914" d="M16 1082h304l130 -611l144 611h302l-356 -1244q-80 -275 -301 -275q-51 0 -116 19v221l33 -1q66 0 99.5 25.5t50.5 88.5l22 73zM87 1536h317l198 -310h-239z" />
<glyph unicode="&#x1ef4;" horiz-adv-x="1111" d="M16 1456h320l220 -654l219 654h320l-390 -928v-528h-298v528zM390 -199q0 60 45.5 99.5t117.5 39.5q73 0 118.5 -39.5t45.5 -99.5t-45.5 -99.5t-118.5 -39.5q-72 0 -117.5 39.5t-45.5 99.5z" />
<glyph unicode="&#x1ef5;" horiz-adv-x="914" d="M16 1082h304l130 -611l144 611h302l-356 -1244q-80 -275 -301 -275q-51 0 -116 19v221l33 -1q66 0 99.5 25.5t50.5 88.5l22 73zM539 -341q0 60 45.5 99.5t117.5 39.5q73 0 118.5 -39.5t45.5 -99.5t-45.5 -99.5t-118.5 -39.5q-72 0 -117.5 39.5t-45.5 99.5z" />
<glyph unicode="&#x1ef6;" horiz-adv-x="1111" d="M16 1456h320l220 -654l219 654h320l-390 -928v-528h-298v528zM437 1708q57 4 82 18.5t25 46.5q0 40 -27.5 54t-76.5 14l6 137q168 0 251.5 -52.5t83.5 -142.5q0 -56 -30.5 -94.5t-87.5 -49.5v-65h-210z" />
<glyph unicode="&#x1ef7;" horiz-adv-x="914" d="M16 1082h304l130 -611l144 611h302l-356 -1244q-80 -275 -301 -275q-51 0 -116 19v221l33 -1q66 0 99.5 25.5t50.5 88.5l22 73zM337 1399q57 4 82 18.5t25 46.5q0 40 -27.5 54t-76.5 14l6 137q168 0 251.5 -52.5t83.5 -142.5q0 -56 -30.5 -94.5t-87.5 -49.5v-65h-210z " />
<glyph unicode="&#x1ef8;" horiz-adv-x="1111" d="M16 1456h320l220 -654l219 654h320l-390 -928v-528h-298v528zM231 1565q0 111 57 189.5t140 78.5q22 0 42.5 -6.5t71 -35t72.5 -36t44 -7.5q26 0 45.5 24.5t19.5 70.5l159 -12q0 -111 -56.5 -188.5t-142.5 -77.5q-32 0 -56.5 9t-69 37t-63 34t-40.5 6q-27 0 -45 -24.5 t-18 -70.5z" />
<glyph unicode="&#x1ef9;" horiz-adv-x="914" d="M16 1082h304l130 -611l144 611h302l-356 -1244q-80 -275 -301 -275q-51 0 -116 19v221l33 -1q66 0 99.5 25.5t50.5 88.5l22 73zM131 1256q0 111 57 189.5t140 78.5q22 0 42.5 -6.5t71 -35t72.5 -36t44 -7.5q26 0 45.5 24.5t19.5 70.5l159 -12q0 -111 -56.5 -188.5 t-142.5 -77.5q-32 0 -56.5 9t-69 37t-63 34t-40.5 6q-27 0 -45 -24.5t-18 -70.5z" />
<glyph unicode="&#x2000;" horiz-adv-x="1052" />
<glyph unicode="&#x2001;" horiz-adv-x="2104" />
<glyph unicode="&#x2002;" horiz-adv-x="1052" />
<glyph unicode="&#x2003;" horiz-adv-x="2104" />
<glyph unicode="&#x2004;" horiz-adv-x="701" />
<glyph unicode="&#x2005;" horiz-adv-x="526" />
<glyph unicode="&#x2006;" horiz-adv-x="350" />
<glyph unicode="&#x2007;" horiz-adv-x="350" />
<glyph unicode="&#x2008;" horiz-adv-x="263" />
<glyph unicode="&#x2009;" horiz-adv-x="420" />
<glyph unicode="&#x200a;" horiz-adv-x="116" />
<glyph unicode="&#x2010;" horiz-adv-x="744" d="M123 506v236h489v-236h-489z" />
<glyph unicode="&#x2011;" horiz-adv-x="744" d="M123 506v236h489v-236h-489z" />
<glyph unicode="&#x2012;" horiz-adv-x="744" d="M123 506v236h489v-236h-489z" />
<glyph unicode="&#x2013;" horiz-adv-x="1121" d="M151 594v238h876v-238h-876z" />
<glyph unicode="&#x2014;" horiz-adv-x="1352" d="M122 594v238h1168v-238h-1168z" />
<glyph unicode="&#x2018;" horiz-adv-x="469" d="M108 1047v155q1 88 43 187q46 107 123 182l130 -79q-72 -143 -75 -274v-171h-221z" />
<glyph unicode="&#x2019;" horiz-adv-x="460" d="M67 1088q71 141 74 274v174h222v-158q-1 -91 -47.5 -196.5t-118.5 -172.5z" />
<glyph unicode="&#x201a;" horiz-adv-x="502" d="M79 -226q64 127 67 270v187h231l-1 -167q0 -87 -46 -192t-120 -177z" />
<glyph unicode="&#x201c;" horiz-adv-x="793" d="M117 1047v155q1 88 43 187q46 107 123 182l130 -79q-72 -143 -75 -274v-171h-221zM431 1047v155q1 88 43 187q46 107 123 182l130 -79q-72 -143 -75 -274v-171h-221z" />
<glyph unicode="&#x201d;" horiz-adv-x="800" d="M81 1088q71 141 74 274v174h222v-158q-1 -91 -47.5 -196.5t-118.5 -172.5zM400 1088q71 141 74 274v174h222v-158q-1 -91 -47.5 -196.5t-118.5 -172.5z" />
<glyph unicode="&#x201e;" horiz-adv-x="790" d="M79 -246q64 134 67 289v220h231l-1 -201q-1 -102 -46 -210t-112 -177zM389 -246q71 148 74 291v218h230l-1 -200q-1 -110 -58 -231q-46 -96 -107 -157z" />
<glyph unicode="&#x2026;" horiz-adv-x="1358" d="M128 144q0 68 45.5 112t118.5 44q71 0 118 -43.5t47 -112.5q0 -70 -47.5 -112.5t-117.5 -42.5q-71 0 -117.5 43t-46.5 112zM539 144q0 68 45.5 112t118.5 44q71 0 118 -43.5t47 -112.5q0 -70 -47.5 -112.5t-117.5 -42.5q-71 0 -117.5 43t-46.5 112zM945 144 q0 68 45.5 112t118.5 44q71 0 118 -43.5t47 -112.5q0 -70 -47.5 -112.5t-117.5 -42.5q-71 0 -117.5 43t-46.5 112z" />
<glyph unicode="&#x202f;" horiz-adv-x="420" />
<glyph unicode="&#x2039;" horiz-adv-x="582" d="M111 514v19l233 390h175l-192 -400l192 -399h-175z" />
<glyph unicode="&#x203a;" horiz-adv-x="562" d="M83 124l193 399l-193 400h177l233 -390v-19l-233 -390h-177z" />
<glyph unicode="&#x205f;" horiz-adv-x="526" />
<glyph unicode="&#x20ac;" horiz-adv-x="1036" d="M97 515v153h137v124h-137v152h138q15 252 151.5 391.5t360.5 139.5q90 0 201 -31l-36 -245q-73 32 -149 32q-103 0 -163 -67.5t-69 -219.5h258v-152h-260v-124h260v-153h-260q4 -148 59.5 -220t168.5 -72q87 0 155 31l36 -244q-108 -29 -221 -29q-224 0 -355.5 141.5 t-137.5 392.5h-137z" />
<glyph unicode="&#x2122;" horiz-adv-x="1134" d="M119 1348v108h344v-108h-101v-431h-135v431h-108zM520 914v542h148l89 -367l97 367h139v-542h-120v351l-84 -351h-65l-84 352v-352h-120z" />
<glyph unicode="&#x25fc;" horiz-adv-x="1080" d="M0 0v1080h1080v-1080h-1080z" />
</font>
</defs>
</svg>
